Loading...
Error

Скачать Досье «ODESSA» / Досье "Одесса" / The Odessa File (Роналд Ним / Ronald Neame) [1974 г., триллер, драма, детектив, BDRip-AVC] [MVO] торрент без регистрации

 
Статистика раздачи
Размер:  4,24 GB   |    Скачан:  141 раз
Сидов:  1  [  0 KB/s  ]  
 
Автор Сообщение

leon030982

[] 

Досье "Одесса" / The Odessa File
Страна: Великобритания, ФРГ
Жанр: триллер, драма, детектив
Год выпуска: 1974
Продолжительность: 02:08:37
Перевод: Профессиональный (многоголосый закадровый)
Cубтитры: английские
Оригинальная аудиодорожка: английский
Режиссер: Роналд Ним

Сценарий: Фредерик Форсайт, Кеннет Росс, Джордж Маркстайн
В ролях: Джон Войт, Максимилиан Шелл, Мария Шелл, Мэри Тамм, Дерек Джейкоби, Питер Джефри, Клаус Лоуич, Курт Мейсел, Ханнес Мессемер, Гарфилд Морган

Описание: Экранизация романа Фредерика Форсайта
Питер Миллер - немецкий журналист, выслеживающий бывших нацистов - военных преступников, которые скрываются от возмездия и создали мощную организацию помощи бывшим эсэсовцам под названием ODESSA


Исходник: The Odessa File (1974) 1080p BD-Remux
Качество видео: BDRip-AVC | sample
Формат видео: MKV
Видео кодек: x264
Видео: AVC 1120x476 (2.35:1), 23.976 fps, ~4300 Kbps, 0.33 bit/pixel
Аудио #1: Russian AC3 2ch 48kHz 192Kbps | MVO
Аудио #2: English AC3 2ch 48kHz 224Kbps | Original
Формат субтитров: softsub (SRT)
Главы: есть
--[NoImage] raw [info]: 1120x476p 1:1 @ 24000/1001 fps (cfr)
--[NoImage] x264 [info]: using SAR=1/1
--[NoImage] x264 [info]: using cpu capabilities: MMX2 SSE2Fast FastShuffle SSEMisalign LZCNT
--[NoImage] x264 [info]: profile High, level 4.1
--[NoImage] x264 [info]: cabac=1 ref=12 deblock=1:-3:-3 analyse=0x3:0x113 me=umh subme=11 psy=1 fade_compensate=0.00 psy_rd=1.05:0.07 mixed_ref=1 me_range=48 chroma_me=1 trellis=2 8x8dct=1 cqm=0 deadzone=21,11 fast_pskip=1 chroma_qp_offset=-3 threads=6 lookahead_threads=1 sliced_threads=0 nr=0 decimate=1 interlaced=0 bluray_compat=0 constrained_intra=0 bframes=14 b_pyramid=2 b_adapt=2 b_bias=0 direct=1 weightb=1 open_gop=0 weightp=2 keyint=240 keyint_min=23 scenecut=40 intra_refresh=0 rc_lookahead=40 rc=crf mbtree=0 crf=19.7500 qcomp=0.60 qpmin=0 qpmax=69 qpstep=4 vbv_maxrate=50000 vbv_bufsize=62500 crf_max=0.0 nal_hrd=none ip_ratio=1.40 pb_ratio=1.20 aq=3:1.00
--[NoImage] x264 [info]: started at Sun Jun 10 22:35:57 2012
--[NoImage]
--[NoImage] x264 [info]: frame I:1156 Avg QP:18.18 size: 86918
--[NoImage] x264 [info]: frame P:32000 Avg QP:20.06 size: 38433
--[NoImage] x264 [info]: frame B:151860 Avg QP:21.10 size: 18564
--[NoImage] x264 [info]: consecutive B-frames: 0.9% 0.6% 2.1% 11.1% 15.5% 35.8% 10.8% 14.8% 3.6% 1.1% 1.0% 2.3% 0.4% 0.0% 0.1%
--[NoImage] x264 [info]: mb I I16..4: 8.1% 79.2% 12.7%
--[NoImage] x264 [info]: mb P I16..4: 0.1% 15.6% 0.6% P16..4: 28.8% 37.4% 15.3% 0.0% 0.0% skip: 2.1%
--[NoImage] x264 [info]: mb B I16..4: 0.0% 3.5% 0.0% B16..8: 37.9% 20.3% 5.9% direct: 8.6% skip:23.8% L0:44.6% L1:45.5% BI: 9.9%
--[NoImage] x264 [info]: 8x8 transform intra:95.3% inter:57.3%
--[NoImage] x264 [info]: coded y,uvDC,uvAC intra: 99.0% 86.0% 69.7% inter: 42.3% 21.2% 1.6%
--[NoImage] x264 [info]: i16 v,h,dc,p: 18% 7% 31% 44%
--[NoImage] x264 [info]: i8 v,h,dc,ddl,ddr,vr,hd,vl,hu: 8% 6% 18% 10% 12% 12% 12% 11% 12%
--[NoImage] x264 [info]: i4 v,h,dc,ddl,ddr,vr,hd,vl,hu: 10% 7% 5% 9% 15% 15% 14% 12% 13%
--[NoImage] x264 [info]: i8c dc,h,v,p: 52% 18% 16% 14%
--[NoImage] x264 [info]: Weighted P-Frames: Y:3.3% UV:0.9%
--[NoImage] x264 [info]: ref P L0: 36.7% 11.3% 19.4% 6.5% 6.7% 4.3% 4.7% 2.2% 2.5% 1.8% 2.1% 1.7% 0.1% 0.0%
--[NoImage] x264 [info]: ref B L0: 67.5% 12.4% 6.3% 3.6% 2.7% 2.4% 1.9% 1.3% 1.1% 0.6% 0.3%
--[NoImage] x264 [info]: ref B L1: 92.4% 7.6%
--[NoImage] x264 [info]: kb/s:4301.75
--[NoImage] encoded 185016 frames, 3.74 fps, 4301.75 kb/s
General
Complete name : E:\...\The.Odessa.File.1974.BDRip.x264.DD2.0.Rus.Eng-E76.mkv
Format : Matroska
Format version : Version 2
File size : 4.24 GiB
Duration : 2h 8mn
Overall bit rate : 4 720 Kbps
Movie name : The.Odessa.File.1974.BDRip.x264.DD2.0.Rus.Eng-E76
Encoded date : UTC 2012-06-11 08:33:38
Writing application : mkvmerge v5.2.1 ('A Far Off Place') built on Jan 2 2012 23:21:10
Writing library : libebml v1.2.3 + libmatroska v1.3.0
Video
ID : 1
Format : AVC
Format/Info : Advanced Video Codec
Format profile : High@L4.1
Format settings, CABAC : Yes
Format settings, ReFrames : 12 frames
Codec ID : V_MPEG4/ISO/AVC
Duration : 2h 8mn
Bit rate : 4 210 Kbps
Width : 1 120 pixels
Height : 476 pixels
Display aspect ratio : 2.35:1
Frame rate : 23.976 fps
Color space : YUV
Chroma subsampling : 4:2:0
Bit depth : 8 bits
Scan type : Progressive
Bits/(Pixel*Frame) : 0.329
Stream size : 3.78 GiB (89%)
Title : Encode by Enclave76
Writing library : x264 core 125 r2200kMod 999b753
Encoding settings : cabac=1 / ref=12 / deblock=1:-3:-3 / analyse=0x3:0x113 / me=umh / subme=11 / psy=1 / fade_compensate=0.00 / psy_rd=1.05:0.07 / mixed_ref=1 / me_range=48 / chroma_me=1 / trellis=2 / 8x8dct=1 / cqm=0 / deadzone=21,11 / fast_pskip=1 / chroma_qp_offset=-3 / threads=6 / lookahead_threads=1 / sliced_threads=0 / nr=0 / decimate=1 / interlaced=0 / bluray_compat=0 / constrained_intra=0 / bframes=14 / b_pyramid=2 / b_adapt=2 / b_bias=0 / direct=1 / weightb=1 / open_gop=0 / weightp=2 / keyint=240 / keyint_min=23 / scenecut=40 / intra_refresh=0 / rc_lookahead=40 / rc=crf / mbtree=0 / crf=19.7500 / qcomp=0.60 / qpmin=0 / qpmax=69 / qpstep=4 / vbv_maxrate=50000 / vbv_bufsize=62500 / crf_max=0.0 / nal_hrd=none / ip_ratio=1.40 / pb_ratio=1.20 / aq=3:1.00
Language : English
Matrix coefficients : BT.709-5, BT.1361, IEC 61966-2-4 709, SMPTE RP177
Audio #1
ID : 2
Format : AC-3
Format/Info : Audio Coding 3
Mode extension : CM (complete main)
Codec ID : A_AC3
Duration : 2h 8mn
Bit rate mode : Constant
Bit rate : 192 Kbps
Channel(s) : 2 channels
Channel positions : Front: L R
Sampling rate : 48.0 KHz
Bit depth : 16 bits
Compression mode : Lossy
Stream size : 177 MiB (4%)
Title : MVO
Language : Russian
Audio #2
ID : 3
Format : AC-3
Format/Info : Audio Coding 3
Mode extension : CM (complete main)
Codec ID : A_AC3
Duration : 2h 8mn
Bit rate mode : Constant
Bit rate : 224 Kbps
Channel(s) : 2 channels
Channel positions : Front: L R
Sampling rate : 48.0 KHz
Bit depth : 16 bits
Compression mode : Lossy
Stream size : 206 MiB (5%)
Title : Original
Language : English
Text
ID : 4
Format : UTF-8
Codec ID : S_TEXT/UTF8
Codec ID/Info : UTF-8 Plain Text
Title : SDH
Language : English
Menu
00:00:00.000 : en:Chapter 1
00:08:41.312 : en:Chapter 2
...
02:00:47.574 : en:Chapter 16



Скачать Досье.«ODESSA».Досье."Одесса".The.Odessa.File.(Роналд.Ним.Ronald.Neame).[1974.г.триллер.драма.детектив.BDRip-AVC].[MVO].torrent без регистрации
Золото ЗОЛОТАЯ РАЗДАЧА! СКАЧАННОЕ НЕ ЗАСЧИТЫВАЕТСЯ! Золото
Дата: Зарегистрирован   [ Тип: внутренний ] Как тут cкачать?
MAGNET ссылка
MAGNET ссылка


Скачать .torrent

22 KB

Статус: проверено DHT
Скачан: торрент - 141 раз, раздача полностью - 45 раз
Размер: 4,24 GB
Оценка:  - (Голосов: 0)
Поблагодарили: 0
Поделиться ссылкой на эту раздачу с друзьями:
В контактеFacebookОдноклассникиTwitterLivejournalМой МирLiveinternet
 

 
Показать сообщения:    


Вы не можете начинать темы
Вы не можете отвечать на сообщения
Вы не можете редактировать свои сообщения
Вы не можете удалять свои сообщения
Вы не можете голосовать в опросах
Вы не можете прикреплять файлы к сообщениям
Вы можете скачивать файлы