Loading...
Error

Скачать Конец света / End of days (Питер Хайамс / Peter Hyams) [1999, США, Ужасы, боевик, триллер, DVDRip] [AVO] (Андрей Дольский) торрент без регистрации

 
Статистика раздачи
Размер:  1,23 GB   |    Скачан:  129 раз
Сидов:  1  [  0 KB/s  ]  
 
Автор Сообщение

leon030982

[] 

Конец света / End of days
Страна: США
Жанр: Ужасы, боевик, триллер
Год выпуска: 1999
Продолжительность: 02:02:17
Перевод: Авторский (одноголосый закадровый) Андрей Дольский
Cубтитры: нет

Режиссер: Питер Хайамс / Peter Hyams
В ролях: Арнольд Шварценеггер, Габриел Бирн, Кевин Поллак, Майкл О'Хаган, Виктор Варнадо, Род Стайгер

Описание: Ее рождения боялись веками. С начала эры в своих одиноких кельях отшельники переписывали слова страшного пророчества. В глубине времен звезды предсказали младенцу страшную судьбу: она должна стать невестой самого Дьявола. И в конце тысячелетия Сатана восстанет из ада, чтобы вступить с несчастной в страшный союз. Если это случится, на земле наступит царство Зла и человечество навсегда погрузится во тьму.
Ужасное пророчество, в которое боялись поверить, сбылось. Князь тьмы вырвался из заточения в поисках своей невесты. Время повернуло вспять, отсчитывая мгновения до рокового финала. Но предсказатели не учли одного — того, кто осмелился встать на пути у всесильного Люцифера, чтобы в одиночку остановить Апокалипсис…



Доп. информация: Звуковая дорожка с переводом Андрея Дольского снята с VHS. Синхронизировано мной с помощью VirtualDubMod и Sony Vegas.
Исключительно для любителей авторского перевода.
Кому не интересно просьба не оставлять комментариев.

Сэмпл: http://narod.ru/disk/17171929001/33.avi.html
Качество видео: DVDRip
Формат видео: AVI
Видео: XVID, 720:304, 23.976 fps, 16:9, 1 248 Kbps
Аудио: AC3, 192 Kbps, 2ch stereo, 48 khz - Дольский VHS
General
Complete name : C:\Видеозаписи\End of days.avi
Format : AVI
Format/Info : Audio Video Interleave
File size : 1.23 GiB
Duration : 2h 2mn
Overall bit rate : 1 439 Kbps
Writing application : VirtualDubMod 1.5.10.2 (build 2540/release)
Writing library : VirtualDubMod build 2540/release
Video
ID : 0
Format : MPEG-4 Visual
Format profile : Advanced Simple@L5
Format settings, BVOP : 2
Format settings, QPel : No
Format settings, GMC : No warppoints
Format settings, Matrix : Default (MPEG)
Codec ID : XVID
Codec ID/Hint : XviD
Duration : 2h 2mn
Bit rate : 1 248 Kbps
Width : 720 pixels
Height : 304 pixels
Display aspect ratio : 2.35:1
Frame rate : 23.976 fps
Color space : YUV
Chroma subsampling : 4:2:0
Bit depth : 8 bits
Scan type : Progressive
Compression mode : Lossy
Bits/(Pixel*Frame) : 0.238
Stream size : 1.07 GiB (87%)
Writing library : XviD 1.2.1 (UTC 2008-12-04)
Audio
ID : 1
Format : AC-3
Format/Info : Audio Coding 3
Mode extension : CM (complete main)
Codec ID : 2000
Duration : 1h 56mn
Bit rate mode : Constant
Bit rate : 192 Kbps
Channel(s) : 2 channels
Channel positions : Front: L R
Sampling rate : 48.0 KHz
Bit depth : 16 bits
Compression mode : Lossy
Stream size : 159 MiB (13%)
Alignment : Split accross interleaves
Interleave, duration : 44 ms (1.05 video frame)
Interleave, preload duration : 500 ms



Скачать Конец.света.End.of.days.(Питер.Хайамс.Peter.Hyams).[1999.США.Ужасы.боевик.триллер.DVDRip].[AVO].(Андрей.Дольский).torrent без регистрации
Золото ЗОЛОТАЯ РАЗДАЧА! СКАЧАННОЕ НЕ ЗАСЧИТЫВАЕТСЯ! Золото
Дата: Зарегистрирован   [ Тип: внутренний ] Как тут cкачать?
MAGNET ссылка
MAGNET ссылка


Скачать .torrent

13 KB

Статус: проверено DHT
Скачан: торрент - 129 раз, раздача полностью - 10 раз
Размер: 1,23 GB
Оценка:  5 (Голосов: 1)
Поблагодарили: 1
Поделиться ссылкой на эту раздачу с друзьями:
В контактеFacebookОдноклассникиTwitterLivejournalМой МирLiveinternet
 

 
Показать сообщения:    


Вы не можете начинать темы
Вы не можете отвечать на сообщения
Вы не можете редактировать свои сообщения
Вы не можете удалять свои сообщения
Вы не можете голосовать в опросах
Вы не можете прикреплять файлы к сообщениям
Вы можете скачивать файлы