Loading...
Error

Скачать Орлиное сердце / Eagleheart (Полный 1-ый сезон) (Michael Koman, Andrew Weinberg) [2011 г., комедия, ситком, HDTV] [720p] [LostFilm] торрент без регистрации

 
Статистика раздачи
Размер:  4,22 GB   |    Скачан:  124 раза
Сидов:  1  [  0 KB/s  ]  
 
Автор Сообщение

leon030982

[] 


Орлиное сердце / Eagleheart

Год выпуска: 2011
Страна: США
Жанр: комедия, ситком
Продолжительность: 00:12:00
Перевод: Профессиональный (многоголосый, закадровый) /LostFilm/
Субтитры: Нет
Режиссёр: Michael Koman, Andrew Weinberg
В ролях: Chris Elliott, Brett Gelman, Michael Gladis, Pete Gardner, Maria Thayer
Описание: Полицейский маршал Крис Мансаро - настоящий рейнджер. Его побаиваются не только нарушители закона, но даже собственные начальники. Крис – совершенное орудие против преступности, по случаю обуявшей его родной город. Он не знает жалости к врагам, а в отношении с женщинами - настоящий Мачо. На его стороне закон и правопорядок, сила и несокрушимость, доблесть и честь.
Релиз:
Перевод: nadi_slo
Редактор: Relicit
Озвучка: Студия "LostFilm"

Сэмпл

Качество: HDTV 720p
Формат: MKV
Видео кодек: AVC
Аудио кодек: AC3
Видео: 1280×720 (1.78:1), 23.976 fps,, 3956 kbps avg, 0,179 bit/pixel
Аудио: 48 kHz, Dolby Digital 2.0 ~ 384 kbps

- 03.02.2011 01 - Чем дальше, тем хуже (Get Worse Soon)
- 10.02.2011 02 - Кретины (Creeps)
- 17.02.2011 03 - Хозяин небес (Master of da' Skies)
- 24.02.2011 04 - Имя мне Правосудие (Me Llamo Justice)
- 03.03.2011 05 - Кулак смерти (Death Punch)
- 10.03.2011 06 - Двойное удовольствие (Double Your Pleasure)
- 17.03.2011 07 - Крис, Сьюзи, Бретт и разврат (Chris, Susie, Brett and Malice)
- 24.03.2011 08 - Любовь Сьюзи (Susie's Song)
- 31.03.2011 09 - Человек - дубинка (The Human Bat)
- 07.04.2011 10 - Луженые глотки (Once in a Wattle)
- 14.04.2011 11 - Осторожно: пумы (Danger: Mountain Lions)
- 21.04.2011 12 - Кружка чили и миска смерти (A Mug of Chili and a Bowl of Death)

Код:

General
Complete name                    : E:\Eagleheart - Season 1 [720p] (LostFilm)\Eagleheart.S01E01.HD.rus.LostFilm.TV.mkv
Format                           : Matroska
File size                        : 362 MiB
Duration                         : 11mn 26s
Overall bit rate                 : 4 428 Kbps
Encoded date                     : UTC 2011-03-31 17:20:00
Writing application              : mkvmerge v3.2.0 ('Beginnings') built on Feb 12 2010 16:46:17
Writing library                  : libebml v0.7.9 + libmatroska v0.8.1
Video
ID                               : 1
Format                           : AVC
Format/Info                      : Advanced Video Codec
Format profile                   : High@L3.1
Format settings, CABAC           : Yes
Format settings, ReFrames        : 4 frames
Muxing mode                      : Container profile=Unknown@3.1
Codec ID                         : V_MPEG4/ISO/AVC
Duration                         : 11mn 25s
Bit rate                         : 3 956 Kbps
Nominal bit rate                 : 4 041 Kbps
Width                            : 1 280 pixels
Height                           : 720 pixels
Display aspect ratio             : 16:9
Frame rate                       : 23.976 fps
Resolution                       : 8 bits
Colorimetry                      : 4:2:0
Scan type                        : Progressive
Bits/(Pixel*Frame)               : 0.179
Stream size                      : 323 MiB (89%)
Writing library                  : x264 core 107 r1745 4785e8e
Encoding settings                : cabac=1 / ref=3 / deblock=1:0:0 / analyse=0x3:0x113 / me=hex / subme=7 / psy=1 / psy_rd=1.00:0.00 / mixed_ref=1 / me_range=16 / chroma_me=1 / trellis=1 / 8x8dct=1 / cqm=0 / deadzone=21,11 / fast_pskip=1 / chroma_qp_offset=-2 / threads=4 / sliced_threads=0 / nr=0 / decimate=1 / interlaced=0 / constrained_intra=0 / bframes=3 / b_pyramid=2 / b_adapt=1 / b_bias=0 / direct=1 / weightb=1 / open_gop=0 / weightp=2 / keyint=250 / keyint_min=25 / scenecut=40 / intra_refresh=0 / rc_lookahead=40 / rc=2pass / mbtree=1 / bitrate=4041 / ratetol=1.0 / qcomp=0.60 / qpmin=10 / qpmax=51 / qpstep=4 / cplxblur=20.0 / qblur=0.5 / ip_ratio=1.40 / aq=1:1.00
Audio
ID                               : 2
Format                           : AC-3
Format/Info                      : Audio Coding 3
Codec ID                         : A_AC3
Duration                         : 11mn 26s
Bit rate mode                    : Constant
Bit rate                         : 384 Kbps
Channel(s)                       : 2 channels
Channel positions                : L R
Sampling rate                    : 48.0 KHz
Stream size                      : 31.4 MiB (9%)





Скачать Орлиное.сердце.Eagleheart.(Полный.1-ый.сезон).(Michael.Koman.Andrew.Weinberg).[2011.г.комедия.ситком.HDTV].[720p].[LostFilm].torrent без регистрации
Золото ЗОЛОТАЯ РАЗДАЧА! СКАЧАННОЕ НЕ ЗАСЧИТЫВАЕТСЯ! Золото
Дата: Зарегистрирован   [ Тип: внутренний ] Как тут cкачать?
MAGNET ссылка
MAGNET ссылка


Скачать .torrent

23 KB

Статус: проверено DHT
Скачан: торрент - 124 раз, раздача полностью - 54 раз
Размер: 4,22 GB
Оценка:  - (Голосов: 0)
Поблагодарили: 0
Поделиться ссылкой на эту раздачу с друзьями:
В контактеFacebookОдноклассникиTwitterLivejournalМой МирLiveinternet
 

 
Показать сообщения:    


Вы не можете начинать темы
Вы не можете отвечать на сообщения
Вы не можете редактировать свои сообщения
Вы не можете удалять свои сообщения
Вы не можете голосовать в опросах
Вы не можете прикреплять файлы к сообщениям
Вы можете скачивать файлы