Loading...
Error

Скачать Турнир / The Tournament (Скотт Манн) [2009, Боевик, HDRip-AVC] [Полная версия] [MVO] торрент без регистрации

 
Статистика раздачи
Размер:  2,18 GB   |    Скачан:  136 раз
Сидов:  1  [  0 KB/s  ]  
 
Автор Сообщение

Marsianka

[] 



Год выпуска: 2009
Страна: Великобритания, Buzzfilms
Жанр: Боевик
Продолжительность: 01:35:14
Перевод: Профессиональный (многоголосый, закадровый)
Русские субтитры: есть

Режиссер: Скотт Манн / Scott Mann

В ролях: Роберт Карлайл /Robert Carlyle/, Келли Ху /Kelly Hu/, Йен Сомерхалдер /Ian Somerhalder/, Лиам Каннингэм /Liam Cunningham/, Винг Рэймс /Ving Rhames/, Себастьен Фука /Sebastien Foucan/

Описание: Каждые семь лет в одном из городов проходит необычный турнир. Наемные убийцы со всего мира приезжают туда, чтобы показать свое кровавое мастерство. Каждый раз их должно быть ровно тридцать, но победитель будет только один! Он получит звание лучшего в своем «деле» и 10 миллионов долларов в придачу.
Но, есть и другие участники турнира те, кто у экранов мониторов, вдали от «арены», внимательно следят за смертельными поединками. Они наблюдают не из простого любопытства они сделали крупные ставки, каждый выбрав своего бойца. Это и есть истинные игроки




CЭМПЛ

Автор рипа: сhopper887

Качество: HDRip-AVC(Исходник BD1080)
Формат: MKV
Видео кодек: H.264
Аудио кодек: AC3
Видео: 1024x576 (16:9), 23,976 fps, 2382 kbps
Аудио: 48 kHz, AC3 Dolby Digital, 3/2 (L,C,R,l,r) + LFE ch, ~448.00 kbps RUS
Аудио: 48 kHz, AC3 Dolby Digital, 3/2 (L,C,R,l,r) + LFE ch, ~448.00 kbps ENG
Субтитры:русские

General
Complete name : F:Turnir.chopper887.mkv
Format : Matroska
File size : 2.18 GiB
Duration : 1h 35mn
Overall bit rate : 3 276 Kbps
Movie name : chopper887
Encoded date : UTC 2010-06-14 11:27:08
Writing application : mkvmerge v3.0.0 ('Hang up your Hang-Ups') built on Dec 12 2009 15:20:35
Writing library : libebml v0.7.9 + libmatroska v0.8.1

Video
ID : 1
Format : AVC
Format/Info : Advanced Video Codec
Format profile : High@L4.1
Format settings, CABAC : Yes
Format settings, ReFrames : 10 frames
Muxing mode : Container profile=Unknown@4.1
Codec ID : V_MPEG4/ISO/AVC
Duration : 1h 35mn
Bit rate : 2 382 Kbps
Width : 1 024 pixels
Height : 576 pixels
Display aspect ratio : 16:9
Frame rate : 23.976 fps
Color space : YUV
Chroma subsampling : 4:2:0
Bit depth : 8 bits
Scan type : Progressive
Bits/(Pixel*Frame) : 0.168
Stream size : 1.54 GiB (71%)
Title : Turnir
Writing library : x264 core 98 r1629 2e81ce1
Encoding settings : cabac=1 / ref=10 / deblock=1:-2:-1 / analyse=0x3:0x133 / me=umh / subme=9 / psy=1 / psy_rd=1.00:0.10 / mixed_ref=1 / me_range=32 / chroma_me=1 / trellis=2 / 8x8dct=1 / cqm=0 / deadzone=21,11 / fast_pskip=0 / chroma_qp_offset=-3 / threads=3 / sliced_threads=0 / nr=0 / decimate=1 / interlaced=0 / constrained_intra=0 / bframes=9 / b_pyramid=2 / b_adapt=2 / b_bias=0 / direct=1 / weightb=1 / weightp=2 / keyint=250 / keyint_min=25 / scenecut=40 / intra_refresh=0 / rc_lookahead=80 / rc=2pass / mbtree=1 / bitrate=2382 / ratetol=1.0 / qcomp=0.60 / qpmin=10 / qpmax=51 / qpstep=4 / cplxblur=20.0 / qblur=0.5 / ip_ratio=1.40 / aq=1:1.10
Language : English

Audio #1
ID : 2
Format : AC-3
Format/Info : Audio Coding 3
Mode extension : CM (complete main)
Codec ID : A_AC3
Duration : 1h 35mn
Bit rate mode : Constant
Bit rate : 448 Kbps
Channel(s) : 6 channels
Channel positions : Front: L C R, Side: L R, LFE
Sampling rate : 48.0 KHz
Stream size : 305 MiB (14%)
Title : Многоголоска

Audio #2
ID : 3
Format : AC-3
Format/Info : Audio Coding 3
Mode extension : CM (complete main)
Codec ID : A_AC3
Duration : 1h 35mn
Bit rate mode : Constant
Bit rate : 448 Kbps
Channel(s) : 6 channels
Channel positions : Front: L C R, Side: L R, LFE
Sampling rate : 48.0 KHz
Stream size : 305 MiB (14%)
Title : Английский

Text
ID : 4
Format : UTF-8
Codec ID : S_TEXT/UTF8
Codec ID/Info : UTF-8 Plain Text
Title : Русские



Скачать Турнир.The.Tournament.(Скотт.Манн).[2009.Боевик.HDRip-AVC].[Полная.версия].[MVO].torrent без регистрации
Золото ЗОЛОТАЯ РАЗДАЧА! СКАЧАННОЕ НЕ ЗАСЧИТЫВАЕТСЯ! Золото
Дата: Зарегистрирован   [ Тип: внутренний ] Как тут cкачать?
MAGNET ссылка
MAGNET ссылка


Скачать .torrent

11 KB

Статус: проверено DHT
Скачан: торрент - 136 раз, раздача полностью - 127 раз
Размер: 2,18 GB
Оценка:  4 (Голосов: 4)
Поблагодарили: 9
Поделиться ссылкой на эту раздачу с друзьями:
В контактеFacebookОдноклассникиTwitterLivejournalМой МирLiveinternet
 

 
Показать сообщения:    


Вы не можете начинать темы
Вы не можете отвечать на сообщения
Вы не можете редактировать свои сообщения
Вы не можете удалять свои сообщения
Вы не можете голосовать в опросах
Вы не можете прикреплять файлы к сообщениям
Вы можете скачивать файлы