Loading...
Error

Скачать Путешествие на Луну / A Trip to the Moon / Le Voyage dans la lune (Жорж Мельес) [1902, фантастика, фэнтези, приключения, BDRip-AVC] [B&W version] [VO]+[Sub] торрент без регистрации

 
Статистика раздачи
Размер:  345 MB   |    Скачан:  126 раз
Сидов:  1  [  0 KB/s  ]  
 
Автор Сообщение

Marsianka

[] 

Путешествие на Луну / Le Voyage dans la lune [B&W version] (1902) BDRip-AVC
от
HQCLUB

Информация о фильме:
Название: Путешествие на Луну
Оригинальное название: Le Voyage dans la lune
Год выхода: 1902
Жанр: фантастика, фэнтези, приключения
Режиссер: Жорж Мельес / Georges M™li�s
В ролях: Виктор Андре, Блоэтт Бернон, Brunnet, Жанна дАльси, Генри Деланнуа, Depierre, Farjaut, Келм, Жорж Мельес

О фильме: Ученый делает в Академии доклад о возможности полета на Луну. После бурных дискуссий решено отправить на Луну экспедицию, для которой строится космический корабль в виде полого снаряда, который запускается в космос выстрелом из огромной пушки...

Внимание! Присутствует плавающий кроп из-за дефекта пленки.



Релиз от -
Автор рипа: Deep Fusion

Выпущено: Франция
Продолжительность: 00:12:48
Перевод: Одноголосый закадровый (innokent33) + Robert Israel orchestral score with an original spoken English narration written by Melies + A troupe of actors voicing the various characters as performed in the U.S. in 1903 with piano accompaniment by Frederick Hodges in the background + Piano accompaniment only by Frederick Hodges
Субтитры: Русские (полные, Ms_PacMan)

Файл:
Формат: MKV
Качество: BDRip-AVC (Источник: xamster / Blu-Ray Disc US / 1080p)
Видео: 896x688 (1,33:1), 23.976 fps, x264@L4.1, 2pass ~3000 kbps avg, 0.203 bit/pixel
Звук #1: 48 kHz, AC3 Dolby Digital, 2/0 (L,R), ~192.00 kbps avg (RUS)
Звук #2: 48 kHz, AC3 Dolby Digital, 2/0 (L,R), ~192.00 kbps avg (ENG)
Звук #3: 48 kHz, AC3 Dolby Digital, 2/0 (L,R), ~192.00 kbps avg (ENG)
Звук #4: 48 kHz, AC3 Dolby Digital, 2/0 (L,R), ~192.00 kbps avg (ENG)
Размер: 345.31 Mb
Скачать: Сэмпл
Полное имя : D:A_TRIP_TO_THE_MOON_HDCLUBPuteshestvie.na.Lunu.B&W.1902.RUS.BDRip-AVC.H264.AC3.-HQCLUB.mkv
Формат : Matroska
Версия формата : Version 2
Размер файла : 345 Мбайт
Продолжительность : 12 м.
Общий поток : 3768 Кбит/сек
Дата кодирования : UTC 2012-06-12 15:22:22
Программа кодирования : mkvmerge v5.5.0 ('Healer') built on Apr 6 2012 21:43:24
Библиотека кодирования : libebml v1.2.3 + libmatroska v1.3.0

Видео
Идентификатор : 1
Формат : AVC
Формат/Информация : Advanced Video Codec
Профиль формата : High@L4.1
Параметр CABAC формата : Да
Параметр ReFrames формата : 11 кадров
Идентификатор кодека : V_MPEG4/ISO/AVC
Продолжительность : 12 м.
Битрейт : 3000 Кбит/сек
Ширина : 896 пикселей
Высота : 688 пикселей
Соотношение сторон : 4:3
Частота кадров : 23,976 кадра/сек
Цветовое пространство : YUV
Субдискретизация насыщенности : 4:2:0
Битовая глубина : 8 бит
Тип развёртки : Прогрессивная
Бит/(Пиксели*Кадры) : 0.203
Размер потока : 268 Мбайт (78%)
Библиотека кодирования : x264 core 125 r2200 999b753
Настройки программы : cabac=1 / ref=11 / deblock=1:-3:-3 / analyse=0x3:0x113 / me=umh / subme=11 / psy=1 / psy_rd=1.00:0.00 / mixed_ref=1 / me_range=64 / chroma_me=1 / trellis=2 / 8x8dct=1 / cqm=0 / deadzone=21,11 / fast_pskip=0 / chroma_qp_offset=-4 / threads=6 / lookahead_threads=1 / sliced_threads=0 / nr=0 / decimate=1 / interlaced=0 / bluray_compat=0 / constrained_intra=0 / bframes=9 / b_pyramid=2 / b_adapt=2 / b_bias=0 / direct=1 / weightb=1 / open_gop=0 / weightp=2 / keyint=240 / keyint_min=23 / scenecut=40 / intra_refresh=0 / rc_lookahead=60 / rc=2pass / mbtree=0 / bitrate=3000 / ratetol=1.0 / qcomp=0.60 / qpmin=10 / qpmax=69 / qpstep=4 / cplxblur=20.0 / qblur=0.5 / vbv_maxrate=62500 / vbv_bufsize=50000 / nal_hrd=none / ip_ratio=1.40 / pb_ratio=1.30 / aq=1:0.80
Язык : English
Default : Да
Forced : Нет

Аудио #1
Идентификатор : 2
Формат : AC-3
Формат/Информация : Audio Coding 3
Расширение режима : CM (complete main)
Параметр Endianness формата : Big
Идентификатор кодека : A_AC3
Продолжительность : 12 м.
Вид битрейта : Постоянный
Битрейт : 192 Кбит/сек
Каналы : 2 канала
Расположение каналов : Front: L R
Частота : 48,0 КГц
Битовая глубина : 16 бит
Метод сжатия : С потерями
Размер потока : 17,6 Мбайт (5%)
Заголовок : Russian voice-over by innokent33 for English narration (with Robert Israel orchestral score in the background)
Язык : Russian
Default : Да
Forced : Нет

Аудио #2
Идентификатор : 3
Формат : AC-3
Формат/Информация : Audio Coding 3
Расширение режима : CM (complete main)
Параметр Endianness формата : Big
Идентификатор кодека : A_AC3
Продолжительность : 12 м.
Вид битрейта : Постоянный
Битрейт : 192 Кбит/сек
Каналы : 2 канала
Расположение каналов : Front: L R
Частота : 48,0 КГц
Битовая глубина : 16 бит
Метод сжатия : С потерями
Размер потока : 17,6 Мбайт (5%)
Заголовок : Robert Israel orchestral score with an original spoken English narration written by Melies
Язык : English
Default : Нет
Forced : Нет

Аудио #3
Идентификатор : 4
Формат : AC-3
Формат/Информация : Audio Coding 3
Расширение режима : CM (complete main)
Параметр Endianness формата : Big
Идентификатор кодека : A_AC3
Продолжительность : 12 м.
Вид битрейта : Постоянный
Битрейт : 192 Кбит/сек
Каналы : 2 канала
Расположение каналов : Front: L R
Частота : 48,0 КГц
Битовая глубина : 16 бит
Метод сжатия : С потерями
Размер потока : 17,6 Мбайт (5%)
Заголовок : A troupe of actors voicing the various characters as performed in the U.S. in 1903 with piano accompaniment by Frederick Hodges in the background
Язык : English
Default : Нет
Forced : Нет

Аудио #4
Идентификатор : 5
Формат : AC-3
Формат/Информация : Audio Coding 3
Расширение режима : CM (complete main)
Параметр Endianness формата : Big
Идентификатор кодека : A_AC3
Продолжительность : 12 м.
Вид битрейта : Постоянный
Битрейт : 192 Кбит/сек
Каналы : 2 канала
Расположение каналов : Front: L R
Частота : 48,0 КГц
Битовая глубина : 16 бит
Метод сжатия : С потерями
Размер потока : 17,6 Мбайт (5%)
Заголовок : Piano accompaniment only by Frederick Hodges
Язык : English
Default : Нет
Forced : Нет

Текст
Идентификатор : 6
Формат : UTF-8
Идентификатор кодека : S_TEXT/UTF8
Идентификатор кодека/Информация : UTF-8 Plain Text
Заголовок : Русские (полные, Ms_PacMan)
Язык : Russian
Default : Да
Forced : Нет

Меню
00:00:00.000 : en:Chapter 1
00:02:58.678 : en:Chapter 2
00:03:43.598 : en:Chapter 3
00:04:10.000 : en:Chapter 4
00:05:35.710 : en:Chapter 5
00:05:59.192 : en:Chapter 6
00:06:19.796 : en:Chapter 7
00:07:27.864 : en:Chapter 8
00:08:40.520 : en:Chapter 9
00:09:38.828 : en:Chapter 10
00:10:14.531 : en:Chapter 11
00:10:34.467 : en:Chapter 12
00:11:07.917 : en:Chapter 13
00:11:24.809 : en:Chapter 14
00:11:36.154 : en:Chapter 15
---[NoImage] x264 [info]: frame I:81 Avg QP:28.91 size: 58837
---[NoImage] x264 [info]: frame P:3488 Avg QP:32.38 size: 24373
---[NoImage] x264 [info]: frame B:14863 Avg QP:33.00 size: 13339
---[NoImage] x264 [info]: consecutive B-frames: 2.5% 0.4% 1.9% 13.2% 13.4% 24.5% 24.0% 19.8% 0.0% 0.2%
---[NoImage] x264 [info]: mb I I16..4: 4.1% 79.0% 17.0%
---[NoImage] x264 [info]: mb P I16..4: 0.2% 8.0% 1.0% P16..4: 35.9% 37.1% 10.4% 0.0% 0.0% skip: 7.5%
---[NoImage] x264 [info]: mb B I16..4: 0.0% 2.0% 0.2% B16..8: 30.2% 17.6% 3.9% direct: 8.7% skip:37.3% L0:56.3% L1:36.7% BI: 7.0%
---[NoImage] x264 [info]: 8x8 transform intra:87.5% inter:62.5%
---[NoImage] x264 [info]: coded y,uvDC,uvAC intra: 93.7% 0.0% 0.0% inter: 38.1% 0.0% 0.0%
---[NoImage] x264 [info]: i16 v,h,dc,p: 34% 33% 12% 20%
---[NoImage] x264 [info]: i8 v,h,dc,ddl,ddr,vr,hd,vl,hu: 7% 6% 2% 12% 17% 15% 15% 13% 13%
---[NoImage] x264 [info]: i4 v,h,dc,ddl,ddr,vr,hd,vl,hu: 7% 5% 2% 10% 16% 16% 15% 14% 15%
---[NoImage] x264 [info]: i8c dc,h,v,p: 100% 0% 0% 0%
---[NoImage] x264 [info]: Weighted P-Frames: Y:65.8% UV:0.0%
---[NoImage] x264 [info]: ref P L0: 38.5% 4.9% 16.5% 9.4% 7.7% 6.5% 5.5% 3.3% 2.7% 2.2% 1.7% 1.0% 0.1%
---[NoImage] x264 [info]: ref B L0: 41.7% 21.5% 13.6% 7.5% 5.5% 4.1% 3.1% 1.7% 0.9% 0.4%
---[NoImage] x264 [info]: ref B L1: 88.6% 11.4%
---[NoImage] x264 [info]: kb/s:2997.46



Скачать Путешествие.на.Луну.A.Trip.to.the.Moon.Le.Voyage.dans.la.lune.(Жорж.Мельес).[1902.фантастика.фэнтези.приключения.BDRip-AVC].[B&W.version].[VO]+[Sub].torrent без регистрации
Золото ЗОЛОТАЯ РАЗДАЧА! СКАЧАННОЕ НЕ ЗАСЧИТЫВАЕТСЯ! Золото
Дата: Зарегистрирован   [ Тип: внутренний ] Как тут cкачать?
MAGNET ссылка
MAGNET ссылка


Скачать .torrent

14 KB

Статус: проверено DHT
Скачан: торрент - 126 раз, раздача полностью - 9 раз
Размер: 345 MB
Оценка:  - (Голосов: 0)
Поблагодарили: 2
Поделиться ссылкой на эту раздачу с друзьями:
В контактеFacebookОдноклассникиTwitterLivejournalМой МирLiveinternet
 

 
Показать сообщения:    


Вы не можете начинать темы
Вы не можете отвечать на сообщения
Вы не можете редактировать свои сообщения
Вы не можете удалять свои сообщения
Вы не можете голосовать в опросах
Вы не можете прикреплять файлы к сообщениям
Вы можете скачивать файлы