Loading...
Error

Скачать Двойной удар / Double Impact (Шелдон Леттич /Sheldon Lettich) [1991, боевик, DVDRip-AVC] [MVO] + [AVO] торрент без регистрации

 
Статистика раздачи
Размер:  1,53 GB   |    Скачан:  148 раз
Сидов:  1  [  0 KB/s  ]  
 
Автор Сообщение

leon030982

[] 

Название: Двойной удар
Оригинальное название: Double Impact
Год выхода: 1991
Страна: США
Студия: Stone Group Pictures, Vision International
Жанр: боевик
Продолжительность: 01:49:37
Перевод:
1.Профессиональный(многоголосый, закадровый)
2.Авторский (одноголосый, А.Гаврилов)
3.Оригинал

Режиссер: Шелдон Леттич /Sheldon Lettich

В ролях: Жан-Клод Ван Дамм /Jean-Claude Van Damme/, Джеффри Льюис /Geoffrey Lewis/, Алан Скарф /Alan Scarfe/, Филип Чэн /Philip Chan/, Кори Эверсон /Cory Everson/, Элонна Шоу /Alonna Shaw


Когда-то мафия из Гонконга жестоко и безжалостно расправилась с родителями братьев-близнецов Чеда и Алекса, которых чудом удалось спасти в давней кровавой перестрелке. Судьба раскидала братьев по разные стороны океана: один рос в Калифорнии, другой остался в Гонконге. И вот спустя 25 лет стараниями верного друга их погибших родителей два брата встречаются, чтобы заставить виновников того преступления сильно раскаяться в некогда содеянном.



Качество: DVDRip-AVC
Формат: MKV
Кодек: H.264
Видео: 704 x 448, 23.976 fps, 1484 Kbps
Audio 1: AC3, 48 kHz, 6 ch, 192 kbps
Audio 2: AC3, 48 kHz, 6 ch, 192 kbps
Audio 3: AAC, 48 kHz, 2 ch, 128 kbps
Субтитры: русские, английские
В сцене, когда Чэд и Алекс просыпаются на острове после драки друг с другом, они видят, как на остров нападают плохие парни. Чэд нападает на одного из них и забирает у него винтовку. Алекс в свою очередь нападает на парня на пляже и забирает у него кинжал. После этого Алекс входит в гостиницу, держа в руках оружие, которое до этого взял Чэд, а Чэд прикладывает к его шее кинжал, который до этого Алекс отобрал у парня на пляже.
Боло Йенг, играющий в данном фильме одного из злодеев, также снимался в другом фильме с Ван Даммом в главной роли «Кровавый спорт».
Format : Matroska
Format version : Version 2
File size : 1.53 GiB
Duration : 1h 49mn
Overall bit rate : 1 994 Kbps
Writing application : HandBrake 0.9.5
Writing library : libmkv 0.6.4.1

Video
ID : 1
Format : AVC
Format/Info : Advanced Video Codec
Format profile : Main@L3.0
Format settings, CABAC : Yes
Format settings, ReFrames : 4 frames
Codec ID : V_MPEG4/ISO/AVC
Duration : 1h 49mn
Nominal bit rate : 1 484 Kbps
Width : 704 pixels
Height : 448 pixels
Display aspect ratio : 16:9
Original display aspect ratio : 16:9
Frame rate mode : Variable
Frame rate : 23.976 fps
Color space : YUV
Chroma subsampling : 4:2:0
Bit depth : 8 bits
Scan type : Progressive
Bits/(Pixel*Frame) : 0.196
Writing library : x264 core 112
Encoding settings : cabac=1 / ref=2 / deblock=1:0:0 / analyse=0x1:0x111 / me=hex / subme=6 / psy=1 / psy_rd=1.00:0.00 / mixed_ref=0 / me_range=16 / chroma_me=1 / trellis=0 / 8x8dct=0 / cqm=0 / deadzone=21,11 / fast_pskip=1 / chroma_qp_offset=-2 / threads=6 / sliced_threads=0 / nr=0 / decimate=1 / interlaced=0 / constrained_intra=0 / bframes=2 / b_pyramid=2 / b_adapt=1 / b_bias=0 / direct=1 / weightb=0 / open_gop=0 / weightp=2 / keyint=240 / keyint_min=23 / scenecut=40 / intra_refresh=0 / rc_lookahead=40 / rc=abr / mbtree=1 / bitrate=1484 / ratetol=1.0 / qcomp=0.60 / qpmin=3 / qpmax=51 / qpstep=4 / ip_ratio=1.40 / aq=1:1.00
Language : English
Default : Yes
Forced : No
Color primaries : BT.601-6 525, BT.1358 525, BT.1700 NTSC, SMPTE 170M
Transfer characteristics : BT.709-5, BT.1361
Matrix coefficients : BT.601-6 525, BT.1358 525, BT.1700 NTSC, SMPTE 170M

Audio #1
ID : 2
Format : AC-3
Format/Info : Audio Coding 3
Mode extension : CM (complete main)
Codec ID : A_AC3
Duration : 1h 49mn
Bit rate mode : Constant
Bit rate : 192 Kbps
Channel(s) : 6 channels
Channel positions : Front: L C R, Side: L R, LFE
Sampling rate : 48.0 KHz
Bit depth : 16 bits
Compression mode : Lossy
Stream size : 151 MiB (10%)
Language : Russian
Default : Yes
Forced : No

Audio #2
ID : 3
Format : AC-3
Format/Info : Audio Coding 3
Mode extension : CM (complete main)
Codec ID : A_AC3
Duration : 1h 49mn
Bit rate mode : Constant
Bit rate : 192 Kbps
Channel(s) : 6 channels
Channel positions : Front: L C R, Side: L R, LFE
Sampling rate : 48.0 KHz
Bit depth : 16 bits
Compression mode : Lossy
Stream size : 151 MiB (10%)
Language : Russian
Default : No
Forced : No

Audio #3
ID : 4
Format : AAC
Format/Info : Advanced Audio Codec
Format profile : LC
Codec ID : A_AAC
Duration : 1h 49mn
Channel(s) : 2 channels
Channel positions : Front: L R
Sampling rate : 48.0 KHz
Compression mode : Lossy
Language : English
Default : No
Forced : No

Text #1
ID : 5
Format : UTF-8
Codec ID : S_TEXT/UTF8
Codec ID/Info : UTF-8 Plain Text
Language : Russian
Default : No
Forced : No

Text #2
ID : 6
Format : UTF-8
Codec ID : S_TEXT/UTF8
Codec ID/Info : UTF-8 Plain Text
Language : English
Default : No
Forced : No



Скачать Двойной.удар.Double.Impact.(Шелдон.Леттич.Sheldon.Lettich).[1991.боевик.DVDRip-AVC].[MVO].+.[AVO].torrent без регистрации
Золото ЗОЛОТАЯ РАЗДАЧА! СКАЧАННОЕ НЕ ЗАСЧИТЫВАЕТСЯ! Золото
Дата: Зарегистрирован   [ Тип: внутренний ] Как тут cкачать?
MAGNET ссылка
MAGNET ссылка


Скачать .torrent

16 KB

Статус: проверено DHT
Скачан: торрент - 148 раз, раздача полностью - 99 раз
Размер: 1,53 GB
Оценка:  - (Голосов: 0)
Поблагодарили: 1
Поделиться ссылкой на эту раздачу с друзьями:
В контактеFacebookОдноклассникиTwitterLivejournalМой МирLiveinternet
 

 
Показать сообщения:    


Вы не можете начинать темы
Вы не можете отвечать на сообщения
Вы не можете редактировать свои сообщения
Вы не можете удалять свои сообщения
Вы не можете голосовать в опросах
Вы не можете прикреплять файлы к сообщениям
Вы можете скачивать файлы