Loading...
Error

Скачать Ураган / The Hurricane (Норман Джуисон) [1999, драма, биография, спорт, HDDVDRip-AVC] [MVO]+[AVO]+[Sub] торрент без регистрации

 
Статистика раздачи
Размер:  4,78 GB   |    Скачан:  133 раза

Полного источника не было: 22 минуты

 
Автор Сообщение

Marsianka

[] 

Ураган / The Hurricane (1999) HDDVDRip-AVC
от
HQCLUB

Информация о фильме:
Название: Ураган
Оригинальное название: The Hurricane
Год выхода: 1999
Жанр: драма, биография, спорт
Режиссер: Норман Джуисон
В ролях: Дензел Вашингтон, Виселос Реон Шеннон, Дебора Унгер, Лив Шрайбер, Джон Ханна, Дэн Хедайя, Debbi Morgan, Клэнси Браун, Дэвид Пэймер, Харрис Юлин, Род Стайгер, Баджа Джола, Винсент Пасторе, Аль Ваксман, Дэвид Лэнсбери, Garland Whitt, Чак Купер, Brenda Denmark, Марсия Беннетт, Beatrice Winde, Митчел Тейлор мл.

О фильме: Фильм основан на реальных фактах из жизни боксера Рубина Картера по прозвищу «Ураган» - главного претендента на чемпионский титул в среднем весе в июне 1966 года. После убийства трех человек в одном из баров Нью-Джерси его обвинили в этом страшном преступлении и приговорили к трем пожизненным тюремным срокам.



Релиз от -
Автор рипа: Deep Fusion

Выпущено: США
Продолжительность: 02:25:51
Перевод: Профессиональный (многоголосый, закадровый) + Авторский, одноголосый (Ю.Живова) + Авторский, одноголосый (С.Кузнецова) + Оригинальная звуковая дорожка (английская)
Субтитры: Английские (SDH)

Файл:
Формат: MKV
Качество: HDDVDRip-AVC (Источник: HDCLUB / HDDVDRemux / 1080p)
Видео: 1024x558 (1.84:1), 23.976 fps, x264@L4.1 ~2900 kbps avg, 0.212 bit/pixel
Звук #1: 48 kHz, AC3, 3/2 (L,C,R,l,r) + LFE ch, ~448.00 kbps avg
Звук #2: 48 kHz, AC3, 3/2 (L,C,R,l,r) + LFE ch, ~448.00 kbps avg
Звук #3: 48 kHz, AC3, 3/2 (L,C,R,l,r) + LFE ch, ~448.00 kbps avg
Звук #4: 48 kHz, AC3, 3/2 (L,C,R,l,r) + LFE ch, ~448.00 kbps avg
Размер: 4896.80 Mb
Скачать: Сэмпл
Формат : Matroska
Версия формата : Version 2
Размер файла : 4,78 Гбайт
Продолжительность : 2 ч. 25 м.
Общий поток : 4694 Кбит/сек
Дата кодирования : UTC 2012-06-16 13:59:27
Программа кодирования : mkvmerge v5.5.0 ('Healer') built on Apr 6 2012 21:43:24
Библиотека кодирования : libebml v1.2.3 + libmatroska v1.3.0

Видео
Идентификатор : 1
Формат : AVC
Формат/Информация : Advanced Video Codec
Профиль формата : High@L4.1
Параметр CABAC формата : Да
Параметр ReFrames формата : 10 кадров
Идентификатор кодека : V_MPEG4/ISO/AVC
Продолжительность : 2 ч. 25 м.
Битрейт : 2900 Кбит/сек
Ширина : 1024 пикселя
Высота : 558 пикселей
Соотношение сторон : 1,85:1
Частота кадров : 23,976 кадра/сек
Цветовое пространство : YUV
Субдискретизация насыщенности : 4:2:0
Битовая глубина : 8 бит
Тип развёртки : Прогрессивная
Бит/(Пиксели*Кадры) : 0.212
Размер потока : 2,86 Гбайт (60%)
Заголовок : Ураган / The Hurricane HD-DVDRip-AVC | HQCLUB by Deep Fusion
Библиотека кодирования : x264 core 125 r2200 999b753
Настройки программы : cabac=1 / ref=10 / deblock=1:-3:-3 / analyse=0x3:0x113 / me=umh / subme=11 / psy=1 / psy_rd=1.00:0.10 / mixed_ref=1 / me_range=64 / chroma_me=1 / trellis=2 / 8x8dct=1 / cqm=0 / deadzone=21,11 / fast_pskip=0 / chroma_qp_offset=-5 / threads=6 / lookahead_threads=1 / sliced_threads=0 / nr=0 / decimate=1 / interlaced=0 / bluray_compat=0 / constrained_intra=0 / bframes=12 / b_pyramid=2 / b_adapt=2 / b_bias=0 / direct=1 / weightb=1 / open_gop=0 / weightp=2 / keyint=240 / keyint_min=23 / scenecut=40 / intra_refresh=0 / rc_lookahead=60 / rc=2pass / mbtree=0 / bitrate=2900 / ratetol=1.0 / qcomp=0.60 / qpmin=10 / qpmax=69 / qpstep=4 / cplxblur=20.0 / qblur=0.5 / vbv_maxrate=62500 / vbv_bufsize=50000 / nal_hrd=none / ip_ratio=1.40 / pb_ratio=1.30 / aq=1:0.80
Язык : English
Default : Да
Forced : Нет

Аудио #1
Идентификатор : 2
Формат : AC-3
Формат/Информация : Audio Coding 3
Расширение режима : CM (complete main)
Параметр Endianness формата : Big
Идентификатор кодека : A_AC3
Продолжительность : 2 ч. 25 м.
Вид битрейта : Постоянный
Битрейт : 448 Кбит/сек
Каналы : 6 каналов
Расположение каналов : Front: L C R, Side: L R, LFE
Частота : 48,0 КГц
Битовая глубина : 16 бит
Метод сжатия : С потерями
Размер потока : 467 Мбайт (10%)
Заголовок : Многоголосый, закадровый (НТВ+)
Язык : Russian
Default : Да
Forced : Нет

Аудио #2
Идентификатор : 3
Формат : AC-3
Формат/Информация : Audio Coding 3
Расширение режима : CM (complete main)
Параметр Endianness формата : Big
Идентификатор кодека : A_AC3
Продолжительность : 2 ч. 25 м.
Вид битрейта : Постоянный
Битрейт : 448 Кбит/сек
Каналы : 6 каналов
Расположение каналов : Front: L C R, Side: L R, LFE
Частота : 48,0 КГц
Битовая глубина : 16 бит
Метод сжатия : С потерями
Размер потока : 467 Мбайт (10%)
Заголовок : Одноголосый, закадровый (Ю.Живов)
Язык : Russian
Default : Нет
Forced : Нет

Аудио #3
Идентификатор : 4
Формат : AC-3
Формат/Информация : Audio Coding 3
Расширение режима : CM (complete main)
Параметр Endianness формата : Big
Идентификатор кодека : A_AC3
Продолжительность : 2 ч. 25 м.
Вид битрейта : Постоянный
Битрейт : 448 Кбит/сек
Каналы : 6 каналов
Расположение каналов : Front: L C R, Side: L R, LFE
Частота : 48,0 КГц
Битовая глубина : 16 бит
Метод сжатия : С потерями
Размер потока : 467 Мбайт (10%)
Заголовок : Одноголосый, закадровый (С.Кузнецов)
Язык : Russian
Default : Нет
Forced : Нет

Аудио #4
Идентификатор : 5
Формат : AC-3
Формат/Информация : Audio Coding 3
Расширение режима : CM (complete main)
Параметр Endianness формата : Big
Идентификатор кодека : A_AC3
Продолжительность : 2 ч. 25 м.
Вид битрейта : Постоянный
Битрейт : 448 Кбит/сек
Каналы : 6 каналов
Расположение каналов : Front: L C R, Side: L R, LFE
Частота : 48,0 КГц
Битовая глубина : 16 бит
Метод сжатия : С потерями
Размер потока : 467 Мбайт (10%)
Заголовок : Оригинальная звуковая дорожка (английская)
Язык : English
Default : Нет
Forced : Нет

Текст
Идентификатор : 6
Формат : UTF-8
Идентификатор кодека : S_TEXT/UTF8
Идентификатор кодека/Информация : UTF-8 Plain Text
Заголовок : Английские
Язык : English
Default : Нет
Forced : Нет

Меню
00:00:00.000 : :Chapter 01
00:07:54.924 : :Chapter 02
00:13:45.825 : :Chapter 03
00:17:22.909 : :Chapter 04
00:24:56.277 : :Chapter 05
00:29:04.410 : :Chapter 06
00:35:12.643 : :Chapter 07
00:44:07.262 : :Chapter 08
00:48:46.256 : :Chapter 09
00:53:11.856 : :Chapter 10
01:07:25.542 : :Chapter 11
01:12:34.100 : :Chapter 12
01:23:59.401 : :Chapter 13
01:33:09.033 : :Chapter 14
01:46:07.644 : :Chapter 15
01:55:17.160 : :Chapter 16
02:01:14.184 : :Chapter 17
02:12:45.575 : :Chapter 18
02:15:07.967 : :Chapter 19
02:19:34.950 : :Chapter 20
---[NoImage] x264 [info]: frame I:1372 Avg QP:16.12 size: 69412
---[NoImage] x264 [info]: frame P:40480 Avg QP:18.13 size: 25336
---[NoImage] x264 [info]: frame B:167975 Avg QP:19.73 size: 12208
---[NoImage] x264 [info]: consecutive B-frames: 1.2% 1.2% 4.8% 17.1% 19.2% 34.5% 8.8% 6.4% 2.2% 2.2% 1.0% 1.1% 0.5%
---[NoImage] x264 [info]: mb I I16..4: 6.4% 77.3% 16.3%
---[NoImage] x264 [info]: mb P I16..4: 0.9% 12.8% 1.1% P16..4: 31.3% 36.9% 11.9% 0.0% 0.0% skip: 5.2%
---[NoImage] x264 [info]: mb B I16..4: 0.1% 2.1% 0.1% B16..8: 34.7% 21.7% 3.6% direct: 7.1% skip:30.5% L0:43.1% L1:42.7% BI:14.3%
---[NoImage] x264 [info]: 8x8 transform intra:87.3% inter:56.4%
---[NoImage] x264 [info]: coded y,uvDC,uvAC intra: 90.1% 64.2% 51.5% inter: 27.2% 17.3% 4.5%
---[NoImage] x264 [info]: i16 v,h,dc,p: 41% 12% 9% 38%
---[NoImage] x264 [info]: i8 v,h,dc,ddl,ddr,vr,hd,vl,hu: 9% 7% 11% 10% 13% 13% 12% 12% 13%
---[NoImage] x264 [info]: i4 v,h,dc,ddl,ddr,vr,hd,vl,hu: 12% 7% 9% 9% 15% 14% 12% 11% 11%
---[NoImage] x264 [info]: i8c dc,h,v,p: 54% 22% 14% 10%
---[NoImage] x264 [info]: Weighted P-Frames: Y:4.0% UV:1.3%
---[NoImage] x264 [info]: ref P L0: 47.1% 6.8% 16.9% 8.1% 6.2% 4.8% 4.0% 2.4% 1.9% 1.5% 0.1% 0.0%
---[NoImage] x264 [info]: ref B L0: 70.2% 14.4% 6.2% 3.2% 2.2% 1.7% 1.3% 0.5% 0.2%
---[NoImage] x264 [info]: ref B L1: 92.0% 8.0%
---[NoImage] x264 [info]: kb/s:2899.12



Скачать Ураган.The.Hurricane.(Норман.Джуисон).[1999.драма.биография.спорт.HDDVDRip-AVC].[MVO]+[AVO]+[Sub].torrent без регистрации
Золото ЗОЛОТАЯ РАЗДАЧА! СКАЧАННОЕ НЕ ЗАСЧИТЫВАЕТСЯ! Золото
Дата: Зарегистрирован   [ Тип: внутренний ] Как тут cкачать?
MAGNET ссылка
MAGNET ссылка


Скачать .torrent

25 KB

Статус: проверено DHT
Скачан: торрент - 133 раз, раздача полностью - 32 раз
Размер: 4,78 GB
Оценка:  - (Голосов: 0)
Поблагодарили: 1
Поделиться ссылкой на эту раздачу с друзьями:
В контактеFacebookОдноклассникиTwitterLivejournalМой МирLiveinternet
 

 

[] 

Топик был перенесен из форума Фильмы до 2000 года в HD и DVD в форум Фильмы до 2000 года

МихаНЕзатор
 
Показать сообщения:    


Вы не можете начинать темы
Вы не можете отвечать на сообщения
Вы не можете редактировать свои сообщения
Вы не можете удалять свои сообщения
Вы не можете голосовать в опросах
Вы не можете прикреплять файлы к сообщениям
Вы можете скачивать файлы