Loading...
Error

Скачать Фриско Кид / Парень из Сан Франциско / The Frisco Kid (Роберт Олдрич) [1979, комедия, приключения, вестерн, ..., DVDRip AVC] [MVO]+[AVO]+[Sub] торрент без регистрации

 
Статистика раздачи
Размер:  1,5 GB   |    Скачан:  133 раза
Сидов:  1  [  0 KB/s  ]  
 
Автор Сообщение

Marsianka

[] 

Фриско Кид / Парень из Сан Франциско / The Frisco Kid

&laquoThe greatest cowboy ever to ride into the Wild West. From Poland.»


Год выпуска: 1979
Страна: США
Жанр: комедия, приключения, вестерн, ...
Продолжительность: 01:58:45
Перевод: Профессиональный (многоголосый закадровый)
Авторский (одноголосый закадровый) Петр Карцев
Субтитры: Russian (UTF-8), English (UTF-8), French (UTF-8)

Режиссер: Роберт Олдрич
Сценарий: Майкл Элиас, Фрэнк Шоу
Продюсер: Мейс Нойфелд, Мэл Деллар, Хоук Кох
Оператор: Роберт Б. Хаузер
Композитор: Фрэнк Де Вол
Художник: Теренс Марш, Марвин Марч
Монтаж: Джек Хорджер, Ирвинг Розенблюм, Мори Уайнтроб


В ролях: Джин Уайлдер (Gene Wilder), Харрисон Форд (Harrison Ford), Рамон Биери (Ramon Bieri), Вал Бизольо (Val Bisoglio), Джордж ДиЧенцо (George DiCenzo), Лео Фухс (Leo Fuchs), Пенни Пейсер (Penny Peyser), Уильям Смит (William Smith), Джек Сомак (Jack Somack), Beege Barkette, Шэй Даффин (Shay Duffin), Walter Janovitz, Джо Кэпп (Joe Kapp), Клайд Кусацу (Clyde Kusatsu), Клиффорд А. Пеллоу (Clifford A. Pellow), Аллан Рич (Allan Rich), Генри Роулэнд (Henry Rowland), Винсент Скьявелли (Vincent Schiavelli), Джон Стэдмен (John Steadman), Йен Вульф (Ian Wolfe)

Описание: На дворе 1850-ый год новоиспеченный ортодоксальный раввин Авраам Белински решил добраться из Филадельфии до Сан-Франциско верхом на лошади.Единственное, что знает о Калифорнии незадачливый ездок это то, что она «где-то неподалеку от Нью-Йорка&raquo. К счастью, Авраам знакомится с бывалым ковбоем Томом Лиллардом, который готов протянуть руку помощи.Путь в Сан-Франциско весьма рискованное мероприятие, принесшее спутникам массу неприятностей: проблемы с законом, встречи с индейцами и бандой жестоких головорезов.
Сборы в США: $9 346 177
Премьера (мир): 6 июля 1979, ...
Рейтинг MPAA: Рекомендуется присутствие родителей

Релиз группы:


Качество: DVDRip
Формат: MKV
Видео кодек: AVC
Аудио кодеk: AC3
Видео: 720x480 @ 853x480 (16:9), 23.976 fps, AVC, 1 227 Kbps
Аудио: Аудио #1: AC3, 192 Kbps, 48.0 KHz, 2 ch MVO
Аудио #2: AC3, 192 Kbps, 48.0 KHz, 2 ch AVO
Аудио #3: AC3, 192 Kbps, 48.0 KHz, 1 ch Original

Меню: Глав 29, English
Общее
Уникальный идентификатор : 242549383576027990359012445001624756954 (0xB6794FE49E0A1A6D993F20EE240EA2DA)
Полное имя : The Frisco Kid (1979) DVDRip AVC.mkv
Формат : Matroska
Версия формата : Version 2
Размер файла : 1,50 Гбайт
Продолжительность : 1 ч. 58 м.
Общий поток : 1806 Кбит/сек
Дата кодирования : UTC 2012-04-20 05:23:54
Программа кодирования : mkvmerge v5.5.0 ('Healer') built on Apr 6 2012 21:43:24
Библиотека кодирования : libebml v1.2.3 + libmatroska v1.3.0

Видео
Идентификатор : 1
Формат : AVC
Формат/Информация : Advanced Video Codec
Профиль формата : High@L4.1
Параметр CABAC формата : Да
Параметр ReFrames формата : 4 кадра
Идентификатор кодека : V_MPEG4/ISO/AVC
Продолжительность : 1 ч. 58 м.
Битрейт : 1227 Кбит/сек
Ширина : 720 пикселей
Высота : 480 пикселей
Соотношение сторон : 16:9
Соотношение сторон в оригинале : 16:9
Частота кадров : 23,976 кадра/сек
Стандарт вещания : NTSC
Цветовое пространство : YUV
Субдискретизация насыщенности : 4:2:0
Битовая глубина : 8 бит
Тип развёртки : Прогрессивная
Бит/(Пиксели*Кадры) : 0.148
Размер потока : 1014 Мбайт (66%)
Заголовок : Видео
Библиотека кодирования : x264 core 122 r2184+663+29 dad6db3 tMod [8-bit@all X86]
Настройки программы : cabac=1 / ref=4 / deblock=1:-3:-2 / analyse=0x3:0x133 / me=umh / subme=10 / psy=1 / fade_compensate=0.00 / psy_rd=1.00:0.15 / mixed_ref=1 / me_range=32 / chroma_me=1 / trellis=2 / 8x8dct=1 / cqm=0 / deadzone=21,11 / fast_pskip=0 / chroma_qp_offset=-3 / threads=3 / sliced_threads=0 / nr=0 / decimate=1 / interlaced=0 / bluray_compat=0 / constrained_intra=0 / fgo=0 / bframes=8 / b_pyramid=2 / b_adapt=2 / b_bias=0 / direct=3 / weightb=1 / open_gop=0 / weightp=2 / keyint=240 / keyint_min=23 / scenecut=40 / intra_refresh=0 / rc_lookahead=50 / rc=2pass / mbtree=1 / bitrate=1227 / ratetol=1.0 / qcomp=0.80 / qpmin=0 / qpmax=51 / qpstep=4 / cplxblur=20.0 / qblur=0.5 / ip_ratio=1.40 / aq=1:1.00
Язык : English
Default : Да
Forced : Нет
Основные цвета : BT.470-6 System B, BT.470-6 System G, BT.601-6 625, BT.1358 625, BT.1700 625 PAL, BT.1700 625 SECAM
Характеристики трансфера : BT.470-6 System B, BT.470-6 System G
Коэффициенты матрицы : BT.470-6 System B, BT.470-6 System G, BT.601-6 625, BT.1358 625, BT.1700 625 PAL, BT.1700 625 SECAM, IEC 61966-2-4 601

Аудио #1
Идентификатор : 2
Формат : AC-3
Формат/Информация : Audio Coding 3
Расширение режима : CM (complete main)
Параметр Endianness формата : Big
Идентификатор кодека : A_AC3
Продолжительность : 1 ч. 58 м.
Вид битрейта : Постоянный
Битрейт : 192 Кбит/сек
Каналы : 2 канала
Расположение каналов : Front: L R
Частота : 48,0 КГц
Битовая глубина : 16 бит
Метод сжатия : С потерями
Задержка видео : 16 мс.
Размер потока : 163 Мбайт (11%)
Заголовок : Аудио 1 MVO
Язык : Russian
Default : Да
Forced : Нет

Аудио #2
Идентификатор : 3
Формат : AC-3
Формат/Информация : Audio Coding 3
Расширение режима : CM (complete main)
Параметр Endianness формата : Big
Идентификатор кодека : A_AC3
Продолжительность : 1 ч. 58 м.
Вид битрейта : Постоянный
Битрейт : 192 Кбит/сек
Каналы : 2 канала
Расположение каналов : Front: L R
Частота : 48,0 КГц
Битовая глубина : 16 бит
Метод сжатия : С потерями
Задержка видео : 16 мс.
Размер потока : 163 Мбайт (11%)
Заголовок : Аудио 2 AVO Пётр Карцев
Язык : Russian
Default : Нет
Forced : Нет

Аудио #3
Идентификатор : 4
Формат : AC-3
Формат/Информация : Audio Coding 3
Расширение режима : CM (complete main)
Параметр Endianness формата : Big
Идентификатор кодека : A_AC3
Продолжительность : 1 ч. 58 м.
Вид битрейта : Постоянный
Битрейт : 192 Кбит/сек
Каналы : 1 канал
Расположение каналов : Front: C
Частота : 48,0 КГц
Битовая глубина : 16 бит
Метод сжатия : С потерями
Задержка видео : 16 мс.
Размер потока : 163 Мбайт (11%)
Заголовок : Аудио 3 Original
Язык : English
Default : Нет
Forced : Нет

Текст #1
Идентификатор : 5
Формат : UTF-8
Идентификатор кодека : S_TEXT/UTF8
Идентификатор кодека/Информация : UTF-8 Plain Text
Заголовок : Субтитры 1
Язык : Russian
Default : Да
Forced : Нет

Текст #2
Идентификатор : 6
Формат : UTF-8
Идентификатор кодека : S_TEXT/UTF8
Идентификатор кодека/Информация : UTF-8 Plain Text
Заголовок : Субтитры 2
Язык : English
Default : Нет
Forced : Нет

Текст #3
Идентификатор : 7
Формат : UTF-8
Идентификатор кодека : S_TEXT/UTF8
Идентификатор кодека/Информация : UTF-8 Plain Text
Заголовок : Субтитры 3
Язык : French
Default : Нет
Forced : Нет

Меню
00:00:00.000 : en:Close vote.
00:04:40.801 : en:The Diggs brothers.
00:09:28.135 : en:Stranded.
00:14:08.302 : en:Credits.
00:17:02.469 : en:Amish encounter.
00:22:05.969 : en:Strangeness on a train.
00:24:28.002 : en:Laughable robbery.
00:28:41.502 : en:Working on the railroad.
00:31:40.470 : en:Why my food?
00:33:18.338 : en:Fish dinner for two.
00:37:55.638 : en:Eyes on the tuchus.
00:40:51.805 : en:Taken to the river.
00:43:48.472 : en:Wintry warmup.
00:49:06.806 : en:Bandit partners.
00:54:08.642 : en:No riding today.
01:00:21.309 : en:His all for the Torah.
01:08:30.643 : en:Everybody dance.
01:14:38.810 : en:Monastery manners.
01:19:23.810 : en:Saloon slugfest.
01:26:03.843 : en:Paid back in full.
01:28:44.310 : en:Best friends.
01:31:08.310 : en:Bullets on the beach.
01:34:54.144 : en:Some kind of angel.
01:36:40.978 : en:Where's the rabbi?
01:40:29.312 : en:That's what you are.
01:43:38.013 : en:Dance with a fiancee.
01:48:11.847 : en:Diggs' challenge.
01:52:45.847 : en:I'll take San Francisco.
01:55:12.314 : en:Matrimonial End Credits.
Более верный перевод названия - «Парень из Сан-Франциско&raquo.





















Скачать Фриско.Кид.Парень.из.Сан.Франциско.The.Frisco.Kid.(Роберт.Олдрич).[1979.комедия.приключения.вестерн.DVDRip.AVC].[MVO]+[AVO]+[Sub].torrent без регистрации
Золото ЗОЛОТАЯ РАЗДАЧА! СКАЧАННОЕ НЕ ЗАСЧИТЫВАЕТСЯ! Золото
Дата: Зарегистрирован   [ Тип: внутренний ] Как тут cкачать?
MAGNET ссылка
MAGNET ссылка


Скачать .torrent

15 KB

Статус: проверено DHT
Скачан: торрент - 133 раз, раздача полностью - 55 раз
Размер: 1,5 GB
Оценка:  - (Голосов: 0)
Поблагодарили: 1
Поделиться ссылкой на эту раздачу с друзьями:
В контактеFacebookОдноклассникиTwitterLivejournalМой МирLiveinternet
 

 
Показать сообщения:    


Вы не можете начинать темы
Вы не можете отвечать на сообщения
Вы не можете редактировать свои сообщения
Вы не можете удалять свои сообщения
Вы не можете голосовать в опросах
Вы не можете прикреплять файлы к сообщениям
Вы можете скачивать файлы