Loading...
Error

Скачать Преступление во имя любви / Delitto d'amore (Луиджи Коменчини) [1974, Драма, DVD9] [VO] торрент без регистрации

 
Статистика раздачи
Размер:  5,56 GB   |    Скачан:  115 раз
Сидов:  1  [  0 KB/s  ]  
 
Автор Сообщение

Marsianka

[] 

Информация о фильме
Название: Преступление во имя любви
Оригинальное название: Delitto d'amore
Год выхода: 1974
Жанр: Драма
Режиссер: Луиджи Коменчини
В ролях: Джулиано Джемма, Стефания Сандрелли, Брицио Монтинаро, Ренато Скарпа, Cesira Abbiati, Рина Франкетти, Эмилио Бонуччи, Antonio Iodice, Пиппо Старнацца, Вальтер Вальди ...

О фильме:
Она лимитчица с Сицилии, работает на фабрике в Милане, живет в многосемейном общежитии и тайно влюблена в местного красавца рабочего, члена профсоюза, с благоустроенной квартирой в центре и бойко гоняющего на мотоцикле. Но он не замечает её, пока сумрачным утром не увидел в слезах на проходной, несправедливо обиженную мастером.



Страна: Италия
Продолжительность: 01:37:06
Перевод: Одноголосый закадровый

Файл
Кодек: MPEG-2
Качество: DVD9
Видео: 720x576@1024x576 (PAL 16:9) VBR Auto Letterboxed
Звук:
Аудио: (Dolby AC3, 2 ch) ~192 kb/s |Русский,одноголосый закадровый|
Аудио: (Dolby AC3, 2 ch) ~192 kb/s |Итальянский,оригинальный|
Субтитры: Отсутствуют

Семпл

Формат : MPEG-PS
Размер файла : 1024 Мбайт
Продолжительность : 17 м.
Общий поток : 8014 Кбит/сек

Видео
Идентификатор : 224 (0xE0)
Формат : MPEG Video
Версия формата : Version 2
Профиль формата : Main@Main
Параметр BVOP формата : Да
Параметр матрицы формата : Выборочная
Параметр GOP формата : M=3, N=15
Продолжительность : 17 м.
Вид битрейта : Переменный
Битрейт : 7471 Кбит/сек
Максимальный битрейт : 7800 Кбит/сек
Ширина : 720 пикселей
Высота : 576 пикселей
Соотношение сторон : 16:9
Частота кадров : 25,000 кадров/сек
Стандарт вещания : PAL
Цветовое пространство : YUV
Субдискретизация насыщенности : 4:2:0
Битовая глубина : 8 бит
Тип развёртки : Чересстрочная
Порядок развёртки : Верхнее поле первое
Метод сжатия : С потерями
Бит/(Пиксели*Кадры) : 0.721
Размер потока : 954 Мбайт (93%)

Аудио #1
Идентификатор : 189 (0xBD)-128 (0x80)
Формат : AC-3
Формат/Информация : Audio Coding 3
Расширение режима : CM (complete main)
Режим смешивания : DVD-Video
Продолжительность : 17 м.
Вид битрейта : Постоянный
Битрейт : 192 Кбит/сек
Каналы : 2 канала
Расположение каналов : Front: L R
Частота : 48,0 КГц
Битовая глубина : 16 бит
Метод сжатия : С потерями
Задержка видео : -208 мс.
Размер потока : 24,5 Мбайт (2%)

Аудио #2
Идентификатор : 189 (0xBD)-129 (0x81)
Формат : AC-3
Формат/Информация : Audio Coding 3
Расширение режима : CM (complete main)
Режим смешивания : DVD-Video
Продолжительность : 17 м.
Вид битрейта : Постоянный
Битрейт : 192 Кбит/сек
Каналы : 2 канала
Расположение каналов : Front: L R
Частота : 48,0 КГц
Битовая глубина : 16 бит
Метод сжатия : С потерями
Задержка видео : -208 мс.
Размер потока : 24,5 Мбайт (2%)

Меню

Title: Преступление во имя любви.1974.DVD9
Size: 5.56 Gb ( 5 833 580,00 KBytes ) - DVD-9
Enabled regions: 1, 2, 3, 4, 5, 6, 8

VTS_01 :
Play Length: 01:36:54+00:00:12
Video: PAL 16:9 (720x576) VBR, Auto Letterboxed
Audio:
Russian (Dolby AC3, 2 ch)
Italiano (Dolby AC3, 2 ch)

* Menus Information *

VIDEO_TS Menu
Video:
PAL 4:3 (720x576) VBR
English Language Unit :
Title Menu

VTS_01 Menu
Video:
PAL 16:9 (720x576) VBR
Auto Letterboxed
Audio:
Not specified (Dolby AC3, 6 ch)
English Language Unit :
Root Menu



Скачать Преступление.во.имя.любви.Delitto.d'amore.(Луиджи.Коменчини).[1974.Драма.DVD9].[VO].torrent без регистрации
Золото ЗОЛОТАЯ РАЗДАЧА! СКАЧАННОЕ НЕ ЗАСЧИТЫВАЕТСЯ! Золото
Дата: Зарегистрирован   [ Тип: внутренний ] Как тут cкачать?
MAGNET ссылка
MAGNET ссылка


Скачать .torrent

29 KB

Статус: проверено DHT
Скачан: торрент - 115 раз, раздача полностью - 0 раз
Размер: 5,56 GB
Оценка:  - (Голосов: 0)
Поблагодарили: 1
Поделиться ссылкой на эту раздачу с друзьями:
В контактеFacebookОдноклассникиTwitterLivejournalМой МирLiveinternet
 

 
Показать сообщения:    


Вы не можете начинать темы
Вы не можете отвечать на сообщения
Вы не можете редактировать свои сообщения
Вы не можете удалять свои сообщения
Вы не можете голосовать в опросах
Вы не можете прикреплять файлы к сообщениям
Вы можете скачивать файлы