Loading...
Error

Скачать Операция «К центру Солнца» / Into the Sun (Фриц Кирш) [1991, боевик, комедия, DVDRip-AVC] [DVO] торрент без регистрации

 
Статистика раздачи
Размер:  1,43 GB   |    Скачан:  127 раз
Сидов:  1  [  0 KB/s  ]  
 
Автор Сообщение

Marsianka

[] 

Информация о фильме
Название: Операция «К центру Солнца»
Оригинальное название: Into the Sun
Год выхода: 1991
Жанр: боевик, комедия
Режиссер: Фриц Кирш
В ролях: Энтони Майкл Холл, Майкл Паре, Дебора Мур, Терри Кайзер, Брайан Хейли, Майкл Ст. Джерард, Линден Эшби, Джек Хеллер, Тед Дэвис, Хантер Фон Лир

О фильме:
Ревут реактивные сопла и лучшие истребители мира несутся по небу. Крутой парень Пол самый доблестный пилот в Воздушных силах получает необычное посвятить популярного актера боевиков Тома Слейда, готовящегося к новой роли пилота, во все тонкости летной службы.
Для полноты ощущений новоиспеченные «друзья» отправляются в учебный полет, который заканчивается настоящим воздушным боем. Самолет Пола сбивают над вражеской территорией, и здесь в тылу врага развернется водоворот смертельных воздушных поединков, на оглушительных скоростях, на высоте 30 000 футов



Страна: США
Продолжительность: 01:37:20
Перевод: Профессиональный (двухголосый,закадровый)
+ оригинальная дорожка

Файл
Формат: MKV
Кодек: Н.264
Качество: DVDRip-AVC (рип с DVD9)
Видео: 720 х 544, 25 fps, 1600 Kbps
Звук 1: AC3, 48 KHz, 6 ch, 256 Kbps
Звук 2: AC3, 48 KHz, 6 ch, 256 Kbps - English
Субтитры: русские
Format : Matroska
Format version : Version 2
File size : 1.43 GiB
Duration : 1h 37mn
Overall bit rate : 2 110 Kbps
Encoded date : UTC 2012-06-20 09:39:31
Writing application : mkvmerge v4.9.1 ('Ich will') сборка от Jul 11 2011 23:53:15
Writing library : libebml v1.2.1 + libmatroska v1.1.1

Video
ID : 1
Format : AVC
Format/Info : Advanced Video Codec
Format profile : Main@L3.0
Format settings, CABAC : Yes
Format settings, ReFrames : 4 frames
Muxing mode : Header stripping
Codec ID : V_MPEG4/ISO/AVC
Duration : 1h 37mn
Bit rate : 1 600 Kbps
Width : 720 pixels
Height : 544 pixels
Display aspect ratio : 4:3
Frame rate mode : Variable
Frame rate : 25.000 fps
Color space : YUV
Chroma subsampling : 4:2:0
Bit depth : 8 bits
Scan type : Progressive
Bits/(Pixel*Frame) : 0.163
Stream size : 1.06 GiB (74%)
Writing library : x264 core 120
Encoding settings : cabac=1 / ref=1 / deblock=1:0:0 / analyse=0x1:0x111 / me=hex / subme=2 / psy=1 / psy_rd=1.00:0.00 / mixed_ref=0 / me_range=16 / chroma_me=1 / trellis=0 / 8x8dct=0 / cqm=0 / deadzone=21,11 / fast_pskip=1 / chroma_qp_offset=0 / threads=6 / sliced_threads=0 / nr=0 / decimate=1 / interlaced=0 / bluray_compat=0 / constrained_intra=0 / bframes=3 / b_pyramid=2 / b_adapt=1 / b_bias=0 / direct=1 / weightb=1 / open_gop=0 / weightp=1 / keyint=250 / keyint_min=25 / scenecut=40 / intra_refresh=0 / rc_lookahead=10 / rc=abr / mbtree=1 / bitrate=1600 / ratetol=1.0 / qcomp=0.60 / qpmin=3 / qpmax=69 / qpstep=4 / ip_ratio=1.40 / aq=1:1.00
Language : English
Default : Yes
Forced : No
Color primaries : BT.601-6 525, BT.1358 525, BT.1700 NTSC, SMPTE 170M
Transfer characteristics : BT.709-5, BT.1361
Matrix coefficients : BT.601-6 525, BT.1358 525, BT.1700 NTSC, SMPTE 170M

Audio #1
ID : 2
Format : AC-3
Format/Info : Audio Coding 3
Mode extension : CM (complete main)
Format settings, Endianness : Big
Muxing mode : Header stripping
Codec ID : A_AC3
Duration : 1h 37mn
Bit rate mode : Constant
Bit rate : 256 Kbps
Channel(s) : 6 channels
Channel positions : Front: L C R, Side: L R, LFE
Sampling rate : 48.0 KHz
Bit depth : 16 bits
Compression mode : Lossy
Stream size : 178 MiB (12%)
Language : Russian
Default : Yes
Forced : No

Audio #2
ID : 3
Format : AC-3
Format/Info : Audio Coding 3
Mode extension : CM (complete main)
Format settings, Endianness : Big
Muxing mode : Header stripping
Codec ID : A_AC3
Duration : 1h 37mn
Bit rate mode : Constant
Bit rate : 256 Kbps
Channel(s) : 6 channels
Channel positions : Front: L C R, Side: L R, LFE
Sampling rate : 48.0 KHz
Bit depth : 16 bits
Compression mode : Lossy
Stream size : 178 MiB (12%)
Language : English
Default : No
Forced : No

Text
ID : 4
Format : VobSub
Muxing mode : zlib
Codec ID : S_VOBSUB
Codec ID/Info : The same subtitle format used on DVDs
Language : Russian
Default : No
Forced : No

Menu
00:00:00.000 : en:Chapter 1
00:07:31.680 : en:Chapter 2
00:17:56.400 : en:Chapter 3
00:25:56.800 : en:Chapter 4
00:32:44.200 : en:Chapter 5
00:37:54.240 : en:Chapter 6
00:48:17.880 : en:Chapter 7
00:56:13.240 : en:Chapter 8
01:12:55.520 : en:Chapter 9
01:20:05.640 : en:Chapter 10
01:28:46.840 : en:Chapter 11
01:33:17.160 : en:Chapter 12



Скачать Операция.«К.центру.Солнца».Into.the.Sun.(Фриц.Кирш).[1991.боевик.комедия.DVDRip-AVC].[DVO].torrent без регистрации
Золото ЗОЛОТАЯ РАЗДАЧА! СКАЧАННОЕ НЕ ЗАСЧИТЫВАЕТСЯ! Золото
Дата: Зарегистрирован   [ Тип: внутренний ] Как тут cкачать?
MAGNET ссылка
MAGNET ссылка


Скачать .torrent

15 KB

Статус: проверено DHT
Скачан: торрент - 127 раз, раздача полностью - 8 раз
Размер: 1,43 GB
Оценка:  - (Голосов: 0)
Поблагодарили: 2
Поделиться ссылкой на эту раздачу с друзьями:
В контактеFacebookОдноклассникиTwitterLivejournalМой МирLiveinternet
 

 
Показать сообщения:    


Вы не можете начинать темы
Вы не можете отвечать на сообщения
Вы не можете редактировать свои сообщения
Вы не можете удалять свои сообщения
Вы не можете голосовать в опросах
Вы не можете прикреплять файлы к сообщениям
Вы можете скачивать файлы