Loading...
Error

/ Newsies ( / Kenny Ortega) [1992, , , , BDRip-AVC] [AVO] () + [Sub] (rus, eng) + [Original] (eng)

 
2,9 GB   |    :  110
1  [  0 KB/s  ]  
 

leon030982

[] 

/ Newsies

A Thousand Voices. A Single Dream.

:
: , ,
: 1992
: 02:01:26
: ( ) []
C: ,
:

: / Kenny Ortega

: , , , , , , , ., , ,

: XIX , -. Journal World , . Newsies , , , , .



: (25MB)
: BDRip-AVC ()
: MKV
: x264, 1152x496 (2.35:1), 23.976 fps, 2781 kbps
1: () AC-3, 48.0 kHz, 192 kbps, 2 ch
2: () AC-3, 48.0 kHz, 448 kbps, 5.1 ch
: softsub (SRT)

:

General
Unique ID : 30397038437654869254260062759272979729 (0x16DE41B420A14836B378A6D1421E1D11)
Complete name : /home/kem/Video/Newsies.1992.BDRip.x264.AVO.eng.sub.mkv
Format : Matroska
Format version : Version 2
File size : 2.90 GiB
Duration : 2h 1mn
Overall bit rate : 3 419 Kbps
Movie name : Newsies.1992.1080p.Bluray.AVC.Remux
Encoded date : UTC 2012-06-22 04:38:01
Writing application : mkvmerge v5.6.0 ('Kenya Kane') built on May 31 2012 22:06:17
Writing library : libebml v1.2.2 + libmatroska v1.3.0
Video
ID : 1
Format : AVC
Format/Info : Advanced Video Codec
Format profile : High@L4.1
Format settings, CABAC : Yes
Format settings, ReFrames : 10 frames
Codec ID : V_MPEG4/ISO/AVC
Duration : 2h 1mn
Bit rate : 2 781 Kbps
Width : 1 152 pixels
Height : 496 pixels
Display aspect ratio : 2.35:1
Frame rate : 23.976 fps
Color space : YUV
Chroma subsampling : 4:2:0
Bit depth : 8 bits
Scan type : Progressive
Bits/(Pixel*Frame) : 0.203
Stream size : 2.30 GiB (79%)
Writing library : x264 core 122
Encoding settings : cabac=1 / ref=10 / deblock=1:-3:-3 / analyse=0x3:0x133 / me=umh / subme=11 / psy=1 / psy_rd=1.00:0.00 / mixed_ref=1 / me_range=32 / chroma_me=1 / trellis=2 / 8x8dct=1 / cqm=0 / deadzone=21,11 / fast_pskip=0 / chroma_qp_offset=-4 / threads=6 / sliced_threads=0 / nr=0 / decimate=1 / interlaced=0 / bluray_compat=0 / constrained_intra=0 / bframes=7 / b_pyramid=2 / b_adapt=2 / b_bias=0 / direct=3 / weightb=1 / open_gop=0 / weightp=2 / keyint=250 / keyint_min=23 / scenecut=40 / intra_refresh=0 / rc_lookahead=60 / rc=2pass / mbtree=1 / bitrate=2781 / ratetol=1.0 / qcomp=0.70 / qpmin=0 / qpmax=69 / qpstep=4 / cplxblur=20.0 / qblur=0.5 / ip_ratio=1.40 / aq=1:1.00
Default : Yes
Forced : No
Audio #1
ID : 2
Format : AC-3
Format/Info : Audio Coding 3
Mode extension : CM (complete main)
Format settings, Endianness : Big
Codec ID : A_AC3
Duration : 2h 1mn
Bit rate mode : Constant
Bit rate : 192 Kbps
Channel(s) : 2 channels
Channel positions : Front: L R
Sampling rate : 48.0 KHz
Bit depth : 16 bits
Compression mode : Lossy
Stream size : 167 MiB (6%)
Title : Gavrilov
Language : Russian
Default : Yes
Forced : No
Audio #2
ID : 3
Format : AC-3
Format/Info : Audio Coding 3
Mode extension : CM (complete main)
Format settings, Endianness : Big
Codec ID : A_AC3
Duration : 2h 1mn
Bit rate mode : Constant
Bit rate : 448 Kbps
Channel(s) : 6 channels
Channel positions : Front: L C R, Side: L R, LFE
Sampling rate : 48.0 KHz
Bit depth : 16 bits
Compression mode : Lossy
Stream size : 390 MiB (13%)
Title : Original
Language : English
Default : No
Forced : No
Text #1
ID : 4
Format : UTF-8
Codec ID : S_TEXT/UTF8
Codec ID/Info : UTF-8 Plain Text
Language : Russian
Default : Yes
Forced : No
Text #2
ID : 5
Format : UTF-8
Codec ID : S_TEXT/UTF8
Codec ID/Info : UTF-8 Plain Text
Language : English
Default : No
Forced : No
Menu
00:00:00.000 : en:00:00:00.000
00:01:36.972 : en:00:01:36.972
00:09:38.369 : en:00:09:38.369
00:15:34.767 : en:00:15:34.767
00:19:36.092 : en:00:19:36.092
00:25:58.640 : en:00:25:58.640
00:31:09.701 : en:00:31:09.701
00:39:55.268 : en:00:39:55.268
00:46:09.934 : en:00:46:09.934
00:51:31.588 : en:00:51:31.588
00:55:06.428 : en:00:55:06.428
00:59:31.026 : en:00:59:31.026
01:06:04.627 : en:01:06:04.627
01:08:56.507 : en:01:08:56.507
01:17:53.085 : en:01:17:53.085
01:22:57.139 : en:01:22:57.139
01:27:49.306 : en:01:27:49.306
01:34:14.190 : en:01:34:14.190
01:39:07.483 : en:01:39:07.483
01:44:15.916 : en:01:44:15.916
01:49:32.983 : en:01:49:32.983
01:53:33.557 : en:01:53:33.557

:

Video stream: 2780.828 kbit/s (347603 B/s) size: 2532909967 bytes 7286.779 secs 174710 frames
x264 [info]: frame I:1262 Avg QP:19.15 size: 69771
x264 [info]: frame P:36317 Avg QP:22.57 size: 27293
x264 [info]: frame B:137129 Avg QP:24.36 size: 10601
x264 [info]: consecutive B-frames: 1.1% 1.1% 5.2% 29.3% 16.1% 37.8% 6.4% 3.0%
x264 [info]: mb I I16..4: 3.4% 83.8% 12.8%
x264 [info]: mb P I16..4: 0.3% 11.1% 2.0% P16..4: 32.2% 37.5% 10.8% 3.3% 0.2% skip: 2.6%
x264 [info]: mb B I16..4: 0.0% 1.5% 0.3% B16..8: 39.7% 21.8% 3.8% direct: 4.7% skip:28.2% L0:43.8% L1:45.8% BI:10.4%
x264 [info]: 8x8 transform intra:83.2% inter:66.3%
x264 [info]: direct mvs spatial:98.5% temporal:1.5%
x264 [info]: coded y,uvDC,uvAC intra: 94.6% 84.3% 45.5% inter: 31.4% 24.5% 1.4%
x264 [info]: i16 v,h,dc,p: 21% 19% 3% 57%
x264 [info]: i8 v,h,dc,ddl,ddr,vr,hd,vl,hu: 8% 5% 2% 11% 17% 17% 15% 14% 12%
x264 [info]: i4 v,h,dc,ddl,ddr,vr,hd,vl,hu: 8% 6% 2% 9% 17% 18% 16% 13% 12%
x264 [info]: i8c dc,h,v,p: 37% 21% 20% 22%
x264 [info]: Weighted P-Frames: Y:3.9% UV:1.0%
x264 [info]: ref P L0: 41.0% 14.1% 18.4% 6.4% 5.9% 4.0% 3.9% 2.0% 2.1% 1.9% 0.2% 0.0%
x264 [info]: ref B L0: 73.7% 11.1% 5.8% 3.0% 2.2% 1.8% 1.5% 0.6% 0.3%
x264 [info]: ref B L1: 93.4% 6.6%
x264 [info]: kb/s:2780.83



..Newsies.(..Kenny.Ortega).[1992....BDRip-AVC].[AVO].().+.[Sub].(rus.eng).+.[Original].(eng).torrent
  ! ! 
:   [ : ] c?
MAGNET
MAGNET


.torrent

30 KB

: DHT
: - 110 , - 1
: 2,9 GB
- (: 0)
: 0
:
 FacebookTwitterLivejournal Liveinternet
 

 
: