Loading...
Error

Скачать Ангар 18 / Hangar 18 (Джеймс Л. Конуэй / James L. Conway) [1980, фантастика, боевик, триллер, SATRip] [Dub] (Советский дубляж) + [DVO] (НТВ+) + [AVO] (Юрий Сербин) торрент без регистрации

 
Статистика раздачи
Размер:  1,83 GB   |    Скачан:  138 раз
Сидов:  1  [  0 KB/s  ]  
 
Автор Сообщение

leon030982

[] 

Ангар 18 / Hangar 18
Страна: США
Жанр: фантастика, боевик, триллер
Год выпуска: 1980
Продолжительность: 01:33:08
Перевод 1: Профессиональный (Советский дубляж) + (двухголосый)
Перевод 2: Профессиональный (двухголосый закадровый) (НТВ+)
Перевод 3: Авторский (одноголосый закадровый) Юрий Сербин
Cубтитры: нет
Оригинальная аудиодорожка: английский

Режиссер: Джеймс Л. Конуэй / James L. Conway

В ролях: Уильям Шэллерт, Даррен МакГэвин, Джозеф Кампанелла, Стивен Китс, Стюарт Пэнкин, Гэри Коллинз/Gary Collins, Джеймс Хэмптон/James Hampton/, Роберт Вон/Robert Vaughn/, Памела Беллвуд/Pamela Bellwood/, Билл Закерт, Филип Эбботт/Philip Abbott/, Том Холлик, Клифф Осмонд, Эндрю Блох, Бетти Энн Карр, Х. М. Уайнэнт...

Роли дублировали: Игорь Окрепилов, Александр Демьяненко, Вячеслав Захаров, Юрий Дедович, Владимир Татосов, Галина Чигинская, Юрий Соловьев

Описание: Во время запуска спутника с космического челнока NASA происходит катастрофа, в результате которой погибает один из астронавтов. Как потом выясняется, причиной взрыва становится столкновение спутника с НЛО. Неопознанный объект совершает аварийную посадку на Земле и попадает в руки спецслужб правительства. Небольшая группа военных и политиков, опасающихся ненужной и рискованной шумихи вокруг этого ЧП накануне президентских выборов, делают все, чтобы сохранить проишествие в тайне. Вернувшихся на землю астронавтов изолируют, а НЛО отправляют для исследований на военную базу и прячут в ангаре под №18. Но друзья погибшего астронавта пытаются узнать правду о загадочном объекте, встреченном на орбите и не хотят сидеть сложа руки и предпринимают собственное, и весьма рискованное расследование..



В 80-х годах этот фильм демонстрировался в кинотеатрах по всему СССР и снискал большую популярность у зрителей.

Сэмпл: http://multi-up.com/722303
Качество видео: SATRip
Формат видео: AVI
Видео: Xvid, 720x528, 25.00fps, 2019Kbps, Bits/(Pixel*Frame) 0.213
Аудио 1: 48kHz, AC3, 2/0ch, 192Kbps, Russian - DUB
Аудио 2: 48kHz, AC3, 2/0ch, 192Kbps, Russian - DVO
Аудио 3: 48kHz, AC3, 2/0ch, 192Kbps, Russian - AVO
Аудио 4: 48kHz, AC3, 2/0ch, 192Kbps, English
F:\FANTASTIKA\HANGAR.18.XviD.SATRip.avi
General
Complete name : F:\FANTASTIKA\HANGAR.18.XviD.SATRip.avi
Format : AVI
Format/Info : Audio Video Interleave
File size : 1.83 GiB
Duration : 1h 33mn
Overall bit rate : 2 812 Kbps
Writing application : VirtualDubMod 1.5.10.2 (build 2540/release)
Writing library : VirtualDubMod build 2540/release
Video #0
ID : 0
Format : MPEG-4 Visual
Format profile : Advanced Simple@L5
Format settings, BVOP : 2
Format settings, QPel : No
Format settings, GMC : No warppoints
Format settings, Matrix : Default (H.263)
Codec ID : XVID
Codec ID/Hint : XviD
Duration : 1h 33mn
Bit rate : 2 020 Kbps
Width : 720 pixels
Height : 528 pixels
Display aspect ratio : 4:3
Frame rate : 25.000 fps
Color space : YUV
Chroma subsampling : 4:2:0
Bit depth : 8 bits
Scan type : Progressive
Compression mode : Lossy
Bits/(Pixel*Frame) : 0.213
Stream size : 1.31 GiB (72%)
Writing library : XviD 1.2.1 (UTC 2008-12-04)
Audio #1
ID : 1
Format : AC-3
Format/Info : Audio Coding 3
Mode extension : CM (complete main)
Codec ID : 2000
Duration : 1h 33mn
Bit rate mode : Constant
Bit rate : 192 Kbps
Channel(s) : 2 channels
Channel positions : Front: L R
Sampling rate : 48.0 KHz
Bit depth : 16 bits
Compression mode : Lossy
Stream size : 128 MiB (7%)
Alignment : Split accross interleaves
Interleave, duration : 40 ms (1.00 video frame)
Interleave, preload duration : 500 ms
Audio #2
ID : 2
Format : AC-3
Format/Info : Audio Coding 3
Mode extension : CM (complete main)
Codec ID : 2000
Duration : 1h 33mn
Bit rate mode : Constant
Bit rate : 192 Kbps
Channel(s) : 2 channels
Channel positions : Front: L R
Sampling rate : 48.0 KHz
Bit depth : 16 bits
Compression mode : Lossy
Stream size : 128 MiB (7%)
Alignment : Split accross interleaves
Interleave, duration : 40 ms (1.00 video frame)
Interleave, preload duration : 500 ms
Audio #3
ID : 3
Format : AC-3
Format/Info : Audio Coding 3
Mode extension : CM (complete main)
Codec ID : 2000
Duration : 1h 33mn
Bit rate mode : Constant
Bit rate : 192 Kbps
Channel(s) : 2 channels
Channel positions : Front: L R
Sampling rate : 48.0 KHz
Bit depth : 16 bits
Compression mode : Lossy
Stream size : 128 MiB (7%)
Alignment : Split accross interleaves
Interleave, duration : 40 ms (1.00 video frame)
Interleave, preload duration : 500 ms
Audio #4
ID : 4
Format : AC-3
Format/Info : Audio Coding 3
Mode extension : CM (complete main)
Codec ID : 2000
Duration : 1h 33mn
Bit rate mode : Constant
Bit rate : 192 Kbps
Channel(s) : 2 channels
Channel positions : Front: L R
Sampling rate : 48.0 KHz
Bit depth : 16 bits
Compression mode : Lossy
Stream size : 128 MiB (7%)
Alignment : Split accross interleaves
Interleave, duration : 40 ms (1.00 video frame)
Interleave, preload duration : 500 ms



Скачать Ангар.18.Hangar.18.(Джеймс.Л.Конуэй.James.L.Conway).[1980.фантастика.боевик.триллер.SATRip].[Dub].(Советский.дубляж).+.[DVO].(НТВ+).+.[AVO].(Юрий.Сербин).torrent без регистрации
Золото ЗОЛОТАЯ РАЗДАЧА! СКАЧАННОЕ НЕ ЗАСЧИТЫВАЕТСЯ! Золото
Дата: Зарегистрирован   [ Тип: внутренний ] Как тут cкачать?
MAGNET ссылка
MAGNET ссылка


Скачать .torrent

19 KB

Статус: проверено DHT
Скачан: торрент - 138 раз, раздача полностью - 83 раз
Размер: 1,83 GB
Оценка:  4,5 (Голосов: 2)
Поблагодарили: 4
Поделиться ссылкой на эту раздачу с друзьями:
В контактеFacebookОдноклассникиTwitterLivejournalМой МирLiveinternet
 

 

Ded_dinamo

[] 

Похоже, что на территории бывшего СССР этот фильм пользовался гораздо большей популярностью, чем в США. Во всяком случае, на BD его не издавали. Дай бог, чтобы я ошибался по этому поводу.
Сам смотрел его в детстве. Конечно, обалдел от него. Позже смотрел на VHS. Хочется и сегодня его пересмотреть. Как мне кажется, фильм смело можно отнести к классике жанра.
Спасибо за релиз!
 
Показать сообщения:    


Вы не можете начинать темы
Вы не можете отвечать на сообщения
Вы не можете редактировать свои сообщения
Вы не можете удалять свои сообщения
Вы не можете голосовать в опросах
Вы не можете прикреплять файлы к сообщениям
Вы можете скачивать файлы