Loading...
Error

Скачать Даллас / Dallas (Полный 1-ый сезон) (Cynthia Cidre) [2012, Драма, HDTVRip] [Original] + [Rus sub] (Notabenoid) торрент без регистрации

 
Статистика раздачи
Размер:  3,43 GB   |    Скачан:  137 раз
Сидов:  1  [  0 KB/s  ]  
 
Автор Сообщение

leon030982

[] 

Даллас / Dallas
Год выпуска: 2012
Страна: США
Жанр: Драма
Продолжительность: 42 мин.
Перевод: субтитры
Русские субтитры: есть
Субтитры: Русские
Режиссёр: Cynthia Cidre

В ролях: Larry Hagman, Patrick Duffy, Linda Gray, Steve Kanaly, Charlene Tilton, Josh Henderson, Jesse Metcalfe, Jordana Brewster, Julie Gonzalo, Brenda Strong, Marlene Forte

Описание: Сюжет разворачивается вокруг богатой техасской семьи Юингов, владеющей нефтяным бизнесом «Юинг Ойл» и ранчо со скотоводством. Сериал является продолжением одноименного телесериала, выходившего с 1978 по 1991 год.



Доп. информация: Перевод: Notabenoid
Координатор перевода: mitr
Переводчики:
1-я серия: mitr
2-я серия: mitr
3-я серия: mitr

Качество: HDTVRip
Формат: AVI
Видео кодек: XviD
Аудио кодек: MP3
Видео: Xvid 640x360 23.976fps 991kbps 0.179b/p
Аудио: MPEG Audio Layer 3 48000Hz stereo 128kbps
General
Complete name : I:\Dallas - Season 1\Dallas.2012.S01E01.HDTV.XviD-AFG.avi
Format : AVI
Format/Info : Audio Video Interleave
File size : 444 MiB
Duration : 54mn 51s
Overall bit rate mode : Variable
Overall bit rate : 1 132 Kbps
Video
ID : 0
Format : MPEG-4 Visual
Format profile : Advanced Simple@L5
Format settings, BVOP : 2
Format settings, QPel : No
Format settings, GMC : No warppoints
Format settings, Matrix : Default (H.263)
Codec ID : XVID
Codec ID/Hint : XviD
Duration : 54mn 51s
Bit rate : 991 Kbps
Width : 640 pixels
Height : 360 pixels
Display aspect ratio : 16:9
Frame rate : 23.976 fps
Color space : YUV
Chroma subsampling : 4:2:0
Bit depth : 8 bits
Scan type : Progressive
Compression mode : Lossy
Bits/(Pixel*Frame) : 0.179
Stream size : 389 MiB (88%)
Writing library : XviD 64
Audio
ID : 1
Format : MPEG Audio
Format version : Version 1
Format profile : Layer 3
Mode : Joint stereo
Mode extension : MS Stereo
Codec ID : 55
Codec ID/Hint : MP3
Duration : 54mn 51s
Bit rate mode : Variable
Bit rate : 128 Kbps
Channel(s) : 2 channels
Sampling rate : 48.0 KHz
Compression mode : Lossy
Stream size : 50.2 MiB (11%)
Alignment : Aligned on interleaves
Interleave, duration : 24 ms (0.58 video frame)
Interleave, preload duration : 178 ms
Title : Dallas.2012.S01E01.HDTV.XviD-AFG_360p.audio
Writing library : LAME3.98.4



Скачать Даллас.Dallas.(Полный.1-ый.сезон).(Cynthia.Cidre).[2012.Драма.HDTVRip].[Original].+.[Rus.sub].(Notabenoid).torrent без регистрации
Золото ЗОЛОТАЯ РАЗДАЧА! СКАЧАННОЕ НЕ ЗАСЧИТЫВАЕТСЯ! Золото
Дата: Зарегистрирован   [ Тип: внутренний ] Как тут cкачать?
MAGNET ссылка
MAGNET ссылка


Скачать .torrent

19 KB

Статус: проверено DHT
Скачан: торрент - 137 раз, раздача полностью - 0 раз
Размер: 3,43 GB
Оценка:  - (Голосов: 0)
Поблагодарили: 0
Поделиться ссылкой на эту раздачу с друзьями:
В контактеFacebookОдноклассникиTwitterLivejournalМой МирLiveinternet
 

 
Показать сообщения:    


Вы не можете начинать темы
Вы не можете отвечать на сообщения
Вы не можете редактировать свои сообщения
Вы не можете удалять свои сообщения
Вы не можете голосовать в опросах
Вы не можете прикреплять файлы к сообщениям
Вы можете скачивать файлы