Loading...
Error

Скачать Бронкская история / A Bronx Tale (Роберт Де Ниро / Robert De Niro) [1993, драма, криминал, DVDRip] [MVO] (СОЮЗ видео) торрент без регистрации

 
Статистика раздачи
Размер:  745 MB   |    Скачан:  138 раз
Сидов:  1  [  0 KB/s  ]  
 
Автор Сообщение

leon030982

[] 

Бронкская история / A Bronx Tale
Страна: США
Жанр: драма, криминал
Год выпуска: 1993
Продолжительность: 01:56:10
Перевод: Профессиональный (многоголосый закадровый) СОЮЗ видео
Cубтитры: нет
Режиссер: Роберт Де Ниро / Robert De Niro
В ролях: Роберт Де Ниро, Чазз Пальминтери, Лилло Бранкато, Фрэнсис Капра, Тэрал Хикс, Кэтрин Нардуччи, Клем Касерта, Альфред Саукелли мл., Фрэнк Пьетранголаре, Джо Пеши
Описание: Король бронкской мафии Сонни убил человека. Просто так. Из-за места на парковке. Среди бела дня вытащил пистолет и несколько раз выстрелил. Полиция узнала, что свидетелем преступления был 9-летний Колоджеро, и допросила мальчика. Но Калоджеро не выдавал Сонни. И попал в любимчики мафиози. Что сильно не понравилось водителю автобуса, отцу мальчика.С этого дня началось сотрудничество Сонни и Калоджеро, и, когда мальчик вырос, он не просто стал свидетелем других кровавых деяний своего босса, но и сам оказался на краю пропасти…


Качество видео: DVDRip
Формат видео: AVI
Видео: 576x432 (1.33:1), 25 fps, XviD build 50 ~758 kbps avg, 0.12 bit/pixel
Аудио: 48 kHz, MPEG Layer 3, 2 ch, ~128.00 kbps avg
General
Complete name : D:\Релизы\Бронкская история (1993).avi
Format : AVI
Format/Info : Audio Video Interleave
File size : 745 MiB
Duration : 1h 56mn
Overall bit rate : 897 Kbps
Writing application : VirtualDubMod 1.5.10.2 (build 2540/release)
Writing library : VirtualDubMod build 2540/release
Video
ID : 0
Format : MPEG-4 Visual
Format profile : Advanced Simple@L5
Format settings, BVOP : 1
Format settings, QPel : No
Format settings, GMC : No warppoints
Format settings, Matrix : Custom
Codec ID : XVID
Codec ID/Hint : XviD
Duration : 1h 56mn
Bit rate : 759 Kbps
Width : 576 pixels
Height : 432 pixels
Display aspect ratio : 4:3
Frame rate : 25.000 fps
Color space : YUV
Chroma subsampling : 4:2:0
Bit depth : 8 bits
Scan type : Progressive
Compression mode : Lossy
Bits/(Pixel*Frame) : 0.122
Stream size : 631 MiB (85%)
Writing library : XviD 1.2.1 (UTC 2008-12-04)
Audio
ID : 1
Format : MPEG Audio
Format version : Version 1
Format profile : Layer 3
Mode : Joint stereo
Mode extension : MS Stereo
Codec ID : 55
Codec ID/Hint : MP3
Duration : 1h 56mn
Bit rate mode : Constant
Bit rate : 128 Kbps
Channel(s) : 2 channels
Sampling rate : 48.0 KHz
Compression mode : Lossy
Stream size : 106 MiB (14%)
Alignment : Aligned on interleaves
Interleave, duration : 40 ms (1.00 video frame)
Interleave, preload duration : 504 ms



Скачать Бронкская.история.A.Bronx.Tale.(Роберт.Де.Ниро.Robert.De.Niro).[1993.драма.криминал.DVDRip].[MVO].(СОЮЗ.видео).torrent без регистрации
Золото ЗОЛОТАЯ РАЗДАЧА! СКАЧАННОЕ НЕ ЗАСЧИТЫВАЕТСЯ! Золото
Дата: Зарегистрирован   [ Тип: внутренний ] Как тут cкачать?
MAGNET ссылка
MAGNET ссылка


Скачать .torrent

15 KB

Статус: проверено DHT
Скачан: торрент - 138 раз, раздача полностью - 17 раз
Размер: 745 MB
Оценка:  5 (Голосов: 1)
Поблагодарили: 3
Поделиться ссылкой на эту раздачу с друзьями:
В контактеFacebookОдноклассникиTwitterLivejournalМой МирLiveinternet
 

 

leon030982

[] 

отличное кино ab если кто в курсе на щёт продолжения то напишите ab
 
Показать сообщения:    


Вы не можете начинать темы
Вы не можете отвечать на сообщения
Вы не можете редактировать свои сообщения
Вы не можете удалять свои сообщения
Вы не можете голосовать в опросах
Вы не можете прикреплять файлы к сообщениям
Вы можете скачивать файлы