Loading...
Error

Скачать Возвращение Тома Сойера / Back to Hannibal: The Return of Tom Sawyer and Huckleberry Finn (Пол Красны / Paul Krasny) [1990, семейный, TVRip] [MVO] торрент без регистрации

 
Статистика раздачи
Размер:  1,03 GB   |    Скачан:  147 раз
Сидов:  1  [  0 KB/s  ]  
 
Автор Сообщение

leon030982

[] 

Возвращение Тома Сойера / Back to Hannibal: The Return of Tom Sawyer and Huckleberry Finn
Страна: США
Жанр: семейный
Год выпуска: 1990
Продолжительность: 01:28:10
Перевод: Профессиональный (многоголосый закадровый)
Cубтитры: нет

Режиссер: Пол Красны / Paul Krasny

В ролях: Рафаэл Сбардж, Митчелл Андерсон, Меган Фоллоуз, Уильям Уиндом, Нед Битти, Пол Уинфилд, Грэхэм Джарвис, Джордж Петри, Ши Фаррелл, Хэнк Стоун

Описание: Том Сойер и Гекльберри Финн выросли, ведь прошло 20 лет. Том теперь молодой подающий надежды адвокат. Гек - преуспевающий журналист. И вот они снова возвращаются в свой родной город Ганнибал, чтобы помочь старому другу, бывшему рабу Джиму Уотсону. Он попал в беду и нуждается в помощи и защите.

Сэмпл: http://multi-up.com/721702
Качество видео: TVRip
Формат видео: AVI
Видео: XviD, 720x528, 4:3, 25 кадров/сек, 1475 Кбит/сек, 0.155 Бит/(Пиксели*Кадры)
Аудио: MP3, 48,0 КГц, 192 Кбит/сек, 2 канала
данные медиаинфо:
Общее
Полное имя : C:\фильмы\возвращение тома сойера\Возвращение Тома Сойера.avi
Формат : AVI
Формат/Информация : Audio Video Interleave
Размер файла : 1,03 Гбайт
Продолжительность : 1 ч. 28 м.
Общий поток : 1677 Кбит/сек
Видео
Идентификатор : 0
Формат : MPEG-4 Visual
Профиль формата : Advanced Simple@L4
Параметр BVOP формата : Нет
Параметр QPel формата : Нет
Параметр GMC формата : Без точки перехода
Параметр матрицы формата : Default (H.263)
Идентификатор кодека : XVID
Идентификатор кодека/Подсказка : XviD
Продолжительность : 1 ч. 28 м.
Битрейт : 1475 Кбит/сек
Ширина : 720 пикселей
Высота : 528 пикселей
Соотношение сторон : 4:3
Частота кадров : 25,000 кадров/сек
Цветовое пространство : YUV
Субдискретизация насыщенности : 4:2:0
Битовая глубина : 8 бит
Тип развёртки : Прогрессивная
Метод сжатия : С потерями
Бит/(Пиксели*Кадры) : 0.155
Размер потока : 930 Мбайт (88%)
Аудио
Идентификатор : 1
Формат : MPEG Audio
Версия формата : Version 1
Профиль формата : Layer 3
Идентификатор кодека : 55
Идентификатор кодека/Подсказка : MP3
Продолжительность : 1 ч. 28 м.
Продолжительность оригинала : 1 ч. 28 м.
Вид битрейта : Постоянный
Битрейт : 192 Кбит/сек
Каналы : 2 канала
Частота : 48,0 КГц
Метод сжатия : С потерями
Размер потока : 121 Мбайт (11%)
Выравнивание : Соединение по промежуткам
Продолжительность промежутка : 40 мс. (1,00 видеокадр)
Библиотека кодирования : LAME MP3



Скачать Возвращение.Тома.Сойера.Back.to.Hannibal.The.Return.of.Tom.Sawyer.and.Huckleberry.Finn.(Пол.Красны.Paul.Krasny).[1990.семейный.TVRip].[MVO].torrent без регистрации
Золото ЗОЛОТАЯ РАЗДАЧА! СКАЧАННОЕ НЕ ЗАСЧИТЫВАЕТСЯ! Золото
Дата: Зарегистрирован   [ Тип: внутренний ] Как тут cкачать?
MAGNET ссылка
MAGNET ссылка


Скачать .torrent

11 KB

Статус: проверено DHT
Скачан: торрент - 147 раз, раздача полностью - 37 раз
Размер: 1,03 GB
Оценка:  - (Голосов: 0)
Поблагодарили: 0
Поделиться ссылкой на эту раздачу с друзьями:
В контактеFacebookОдноклассникиTwitterLivejournalМой МирLiveinternet
 

 
Показать сообщения:    


Вы не можете начинать темы
Вы не можете отвечать на сообщения
Вы не можете редактировать свои сообщения
Вы не можете удалять свои сообщения
Вы не можете голосовать в опросах
Вы не можете прикреплять файлы к сообщениям
Вы можете скачивать файлы