Loading...
Error

Скачать Девятнадцатилетние / 19-Nineteen (Юн-Ву Чан / Yong-woo Jang) [2009, Приключения, убийство, TVRip] [DVO] торрент без регистрации

 
Статистика раздачи
Размер:  1,37 GB   |    Скачан:  159 раз
Сидов:  1  [  0 KB/s  ]  
 
Автор Сообщение

leon030982

[] 

Девятнадцатилетние / 19-Nineteen

Страна: Южная Корея
Жанр: Приключения, убийство
Год выпуска: 2009
Продолжительность: 01:42:33
Перевод: Любительский (двухголосый закадровый) Доп. инфо о переводе Релиз-группа STEPonee
Cубтитры: нет
Режиссер: Юн-Ву Чан / Yong-woo Jang
В ролях:
T.O.P as Со Чон Хун
Seung Ri as Пак Мин Со
Heo Yi Jae as Ча Им Ён
Kim Young Ho
Lee Young Bum

Описание:
Фильм рассказывает о трех подростках, подозреваемых в убийстве 19-летней девушки. Никто им не верит - ни полиция, ни их семьи. Тогда они решают сбежать. Во время этого "путешествия" они начинают сближаться и понимать, что жизнь самое драгоценное, что есть у человека...

Доп. информация:
Перевод:
Фансаб-группа "KS-Team"

Озвучка:
Nati12
Мерк

СЭМПЛ
Качество видео: TVRip
Формат видео: AVI
Видео: XviD, 688*384 (16:9), 29.97 fps, 1704 kbps
Аудио: AC-3, 192 kbps, 2 ch, 48.0 KHz
General
Complete name : X:\Девятнадцатилетние.avi
Format : AVI
Format/Info : Audio Video Interleave
File size : 1.37 GiB
Duration : 1h 42mn
Overall bit rate : 1 908 Kbps
Writing application : VirtualDubMod 1.5.10.2 (build 2540/release)
Writing library : VirtualDubMod build 2540/release
Video
ID : 0
Format : MPEG-4 Visual
Format profile : Advanced Simple@L5
Format settings, BVOP : 1
Format settings, QPel : No
Format settings, GMC : No warppoints
Format settings, Matrix : Default (MPEG)
Codec ID : XVID
Codec ID/Hint : XviD
Duration : 1h 42mn
Bit rate : 1 704 Kbps
Width : 688 pixels
Height : 384 pixels
Display aspect ratio : 16:9
Frame rate : 29.970 fps
Color space : YUV
Chroma subsampling : 4:2:0
Bit depth : 8 bits
Scan type : Progressive
Compression mode : Lossy
Bits/(Pixel*Frame) : 0.215
Stream size : 1.22 GiB (89%)
Writing library : XviD 1.2.1 (UTC 2008-12-04)
Audio
ID : 1
Format : AC-3
Format/Info : Audio Coding 3
Mode extension : CM (complete main)
Codec ID : 2000
Duration : 1h 42mn
Bit rate mode : Constant
Bit rate : 192 Kbps
Channel(s) : 2 channels
Channel positions : Front: L R
Sampling rate : 48.0 KHz
Bit depth : 16 bits
Compression mode : Lossy
Stream size : 141 MiB (10%)
Alignment : Aligned on interleaves
Interleave, duration : 33 ms (1.00 video frame)
Interleave, preload duration : 512 ms



Скачать Девятнадцатилетние.19-Nineteen.(Юн-Ву.Чан.Yong-woo.Jang).[2009.Приключения.убийство.TVRip].[DVO].torrent без регистрации
Золото ЗОЛОТАЯ РАЗДАЧА! СКАЧАННОЕ НЕ ЗАСЧИТЫВАЕТСЯ! Золото
Дата: Зарегистрирован   [ Тип: внутренний ] Как тут cкачать?
MAGNET ссылка
MAGNET ссылка


Скачать .torrent

14 KB

Статус: проверено DHT
Скачан: торрент - 159 раз, раздача полностью - 27 раз
Размер: 1,37 GB
Оценка:  - (Голосов: 0)
Поблагодарили: 0
Поделиться ссылкой на эту раздачу с друзьями:
В контактеFacebookОдноклассникиTwitterLivejournalМой МирLiveinternet
 

 
Показать сообщения:    


Вы не можете начинать темы
Вы не можете отвечать на сообщения
Вы не можете редактировать свои сообщения
Вы не можете удалять свои сообщения
Вы не можете голосовать в опросах
Вы не можете прикреплять файлы к сообщениям
Вы можете скачивать файлы