Loading...
Error

Скачать Из времени во время / Связь времён / From Time To Time (Джулиан Феллоуз / Julian Fellowes) [2009, фэнтези, драма, приключения, HDRip] [DVO] (студия NLS) торрент без регистрации

 
Статистика раздачи
Размер:  708 MB   |    Скачан:  126 раз
Сидов:  1  [  0 KB/s  ]  
 
Автор Сообщение

leon030982

[] 

Из времени во время / Связь времён / From Time To Time
Страна: Великобритания
Жанр: фэнтези, драма, приключения
Год выпуска: 2009
Продолжительность: 01:32:41
Перевод: Профессиональный (двухголосый закадровый) (студия NLS)
Cубтитры: нет
Режиссер: Джулиан Феллоуз / Julian Fellowes

В ролях: Алекс Этел /Alex Etel/, Тимоти Сполл /Timothy Spall/, Мэгги Смит /Maggie Smith/, Кристофер Вилльерс /Christopher Villiers/, Полин Коллинз /Pauline Collins/, Элиза Беннетт /Eliza Bennett/, Рэйчел Белл /Rachel Bell/, Доминик Уэст /Dominic West/, Кэрис Ван Хаутен /Carice van Houten/, Дуглас Бут /Douglas Booth

Описание: Декабрь 1944 года, Англия. 13-летний Толли отослан к бабушке в ее загородное поместье Грин-Ноу, пока его мать занимается поисками сведений о пропавшем без вести на фронте отце. В старинном фамильном особняке Толли вдруг обнаруживает, что может перемещаться в прошлое, и становится свидетелем многих давних событий, о которых ему рассказывает бабушка. Его вовлекают в семейные скандалы и тайны 1805 года, отголоски которых все еще слышатся в его собственной эпохе.

Сэмпл: http://multi-up.com/722504
Качество видео: HDRip (рип с BDRip 720p)
Формат видео: AVI
Видео: 688x384 (1.79:1), 23.976 fps, XviD build 50 ~929 kbps avg, 0.15 bit/pixel
Аудио: 48 kHz, MPEG Layer 3, 2 ch, ~128.00 kbps avg
General
Complete name : D:\Рабочая папка\From.Time.to.Time.2009.HDRip.700mb.avi
Format : AVI
Format/Info : Audio Video Interleave
File size : 708 MiB
Duration : 1h 32mn
Overall bit rate : 1 067 Kbps
Writing application : VirtualDubModRus 1.5.10.2 (build 2542/release)
Writing library : VirtualDubMod build 2542/release
Video
ID : 0
Format : MPEG-4 Visual
Format profile : Advanced Simple@L5
Format settings, BVOP : 1
Format settings, QPel : No
Format settings, GMC : No warppoints
Format settings, Matrix : Default (MPEG)
Codec ID : XVID
Codec ID/Hint : XviD
Duration : 1h 32mn
Bit rate : 930 Kbps
Width : 688 pixels
Height : 384 pixels
Display aspect ratio : 16:9
Frame rate : 23.976 fps
Color space : YUV
Chroma subsampling : 4:2:0
Bit depth : 8 bits
Scan type : Progressive
Compression mode : Lossy
Bits/(Pixel*Frame) : 0.147
Stream size : 617 MiB (87%)
Writing library : XviD 1.2.1 (UTC 2008-12-04)
Audio
ID : 1
Format : MPEG Audio
Format version : Version 1
Format profile : Layer 3
Mode : Joint stereo
Mode extension : MS Stereo
Codec ID : 55
Codec ID/Hint : MP3
Duration : 1h 32mn
Bit rate mode : Constant
Bit rate : 128 Kbps
Channel(s) : 2 channels
Sampling rate : 48.0 KHz
Compression mode : Lossy
Stream size : 84.9 MiB (12%)
Alignment : Aligned on interleaves
Interleave, duration : 42 ms (1.00 video frame)
Interleave, preload duration : 504 ms



Скачать Из.времени.во.время.Связь.времён.From.Time.To.Time.(Джулиан.Феллоуз.Julian.Fellowes).[2009.фэнтези.драма.приключения.HDRip].[DVO].(студия.NLS).torrent без регистрации
Золото ЗОЛОТАЯ РАЗДАЧА! СКАЧАННОЕ НЕ ЗАСЧИТЫВАЕТСЯ! Золото
Дата: Зарегистрирован   [ Тип: внутренний ] Как тут cкачать?
MAGNET ссылка
MAGNET ссылка


Скачать .torrent

14 KB

Статус: проверено DHT
Скачан: торрент - 126 раз, раздача полностью - 82 раз
Размер: 708 MB
Оценка:  - (Голосов: 0)
Поблагодарили: 1
Поделиться ссылкой на эту раздачу с друзьями:
В контактеFacebookОдноклассникиTwitterLivejournalМой МирLiveinternet
 

 
Показать сообщения:    


Вы не можете начинать темы
Вы не можете отвечать на сообщения
Вы не можете редактировать свои сообщения
Вы не можете удалять свои сообщения
Вы не можете голосовать в опросах
Вы не можете прикреплять файлы к сообщениям
Вы можете скачивать файлы