Loading...
Error

Скачать Хатико: Самый верный друг / Hachiko: A dog's story (Лассе Халльстрём / Lasse Hallstrem) [2009, драма, семейный, BDRip-AVC] [Лицензия] торрент без регистрации

 
Статистика раздачи
Размер:  2,2 GB   |    Скачан:  336 раз
Сидов:  1  [  0 KB/s  ]  
 
Автор Сообщение

leon030982

[] 

Хатико: Самый верный друг / Hachiko: A dog's story
«Подлинная история веры, преданности и вечной любви»

Страна: США, Великобритания
Жанр: драма, семейный
Год выпуска: 2009
Продолжительность: 01:33:14
Перевод: Профессиональный (дублированный) [Лицензия]
Cубтитры: русские, английские, английские (для слабо слышащих)
Оригинальная аудиодорожка: английский

Режиссер: Лассе Халльстрём / Lasse Hallstrem

В ролях: Ричард Гир, Джоан Аллен, Кэри-Хироюки Тагава, Сара Ремер, Джейсон Александр, Эрик Авари, Давиния МакФэдден, Робби Саблетт

Описание: Фильм поставлен по известной правдивой истории, которая произошла в Японии в 20-х годах. Пес каждый день провожал и встречал своего хозяина на вокзале. Потом хозяин неожиданно умер, но пес в течение 9 лет КАЖДЫЙ день в 3 часа дня приходил на вокзал встречать хозяина и ждал его до последнего поезда. Потом японцы поставили ему памятник на том месте, где он постоянно ждал хозяина.

Кинопоиск
IMDB
Сэмпл: http://multi-up.com/720445
Качество видео: BDRip-AVC
Формат видео: MKV
Видео: AVC, 1112x600, 1.85:1, 23.976 fps, 2417 kbps
Аудио 1: Русский: AC3, 48 kHz, 448 kbps, 3/2 (L,C,R,l,r) + LFE ch.
Аудио 2: Английский: AC3, 48 kHz, 448 kbps, 3/2 (L,C,R,l,r) + LFE ch.
Формат субтитров: softsub (SRT)
Общее
Уникальный идентификатор : 224614605706190046001263048131459208909 (0xA8FB3312EE93114CA084040DF898D6CD)
Полное имя : F:\фильмы\Hachiko.A.Dog's.Story.2010.BDRip-AVC.Rus.Eng.Subs.tRuAVC.mkv
Формат : Matroska
Версия формата : Version 2
Размер файла : 2,20 Гбайт
Продолжительность : 1 ч. 33 м.
Общий поток : 3380 Кбит/сек
Дата кодирования : UTC 2010-09-25 17:52:14
Программа кодирования : mkvmerge v4.0.0 ('The Stars were mine') built on Jun 6 2010 16:18:42
Библиотека кодирования : libebml v1.0.0 + libmatroska v1.0.0
Видео
Идентификатор : 1
Формат : AVC
Формат/Информация : Advanced Video Codec
Профиль формата : High@L4.0
Параметр CABAC формата : Да
Параметр ReFrames формата : 10 кадров
Идентификатор кодека : V_MPEG4/ISO/AVC
Продолжительность : 1 ч. 33 м.
Битрейт : 2417 Кбит/сек
Ширина : 1112 пикселей
Высота : 600 пикселей
Соотношение сторон : 1,85:1
Частота кадров : 23,976 кадра/сек
Цветовое пространство : YUV
Субдискретизация насыщенности : 4:2:0
Битовая глубина : 8 бит
Тип развёртки : Прогрессивная
Бит/(Пиксели*Кадры) : 0.151
Размер потока : 1,57 Гбайт (71%)
Заголовок : Хатико: Самый верный друг / Hachiko: A Dog's Story - by Juicy_J - x264; High@L4.0; 1112x600 (1.853:1); ~2482 kbps; 23.976 fps; 0.152 b/px
Библиотека кодирования : x264 core 105 r1724 b02df7b
Настройки программы : cabac=1 / ref=10 / deblock=1:-3:-2 / analyse=0x3:0x113 / me=umh / subme=10 / psy=1 / psy_rd=1.15:0.10 / mixed_ref=1 / me_range=32 / chroma_me=1 / trellis=2 / 8x8dct=1 / cqm=0 / deadzone=21,11 / fast_pskip=1 / chroma_qp_offset=-3 / threads=12 / sliced_threads=0 / nr=0 / decimate=1 / interlaced=0 / constrained_intra=0 / bframes=8 / b_pyramid=2 / b_adapt=2 / b_bias=0 / direct=3 / weightb=1 / open_gop=0 / weightp=2 / keyint=250 / keyint_min=23 / scenecut=40 / intra_refresh=0 / rc=crf / mbtree=0 / crf=19.0 / qcomp=0.60 / qpmin=10 / qpmax=51 / qpstep=4 / ip_ratio=1.40 / pb_ratio=1.30 / aq=1:1.00
Язык : English
Default : Нет
Forced : Нет
Коэффициенты матрицы : BT.709-5, BT.1361, IEC 61966-2-4 709, SMPTE RP177
Аудио #1
Идентификатор : 2
Формат : AC-3
Формат/Информация : Audio Coding 3
Расширение режима : CM (complete main)
Параметр Endianness формата : Big
Идентификатор кодека : A_AC3
Продолжительность : 1 ч. 33 м.
Вид битрейта : Постоянный
Битрейт : 448 Кбит/сек
Каналы : 6 каналов
Расположение каналов : Front: L C R, Side: L R, LFE
Частота : 48,0 КГц
Битовая глубина : 16 бит
Метод сжатия : С потерями
Размер потока : 299 Мбайт (13%)
Заголовок : Русский (Дубляж); AC3; CBR 448 kbps; 6 ch; 48 kHz
Язык : Russian
Default : Да
Forced : Нет
Аудио #2
Идентификатор : 3
Формат : AC-3
Формат/Информация : Audio Coding 3
Расширение режима : CM (complete main)
Параметр Endianness формата : Big
Идентификатор кодека : A_AC3
Продолжительность : 1 ч. 33 м.
Вид битрейта : Постоянный
Битрейт : 448 Кбит/сек
Каналы : 6 каналов
Расположение каналов : Front: L C R, Side: L R, LFE
Частота : 48,0 КГц
Битовая глубина : 16 бит
Метод сжатия : С потерями
Размер потока : 299 Мбайт (13%)
Заголовок : Английский; AC3; CBR 448 kbps; 6 ch; 48 kHz
Язык : English
Default : Нет
Forced : Нет
Текст #1
Идентификатор : 4
Формат : UTF-8
Идентификатор кодека : S_TEXT/UTF8
Идентификатор кодека/Информация : UTF-8 Plain Text
Заголовок : Русские
Язык : Russian
Default : Нет
Forced : Нет
Текст #2
Идентификатор : 5
Формат : UTF-8
Идентификатор кодека : S_TEXT/UTF8
Идентификатор кодека/Информация : UTF-8 Plain Text
Заголовок : Английские
Язык : English
Default : Нет
Forced : Нет
Текст #3
Идентификатор : 6
Формат : UTF-8
Идентификатор кодека : S_TEXT/UTF8
Идентификатор кодека/Информация : UTF-8 Plain Text
Заголовок : Английские SDH
Язык : English
Default : Нет
Forced : Нет
Меню
00:00:00.000 : en:Chapter 1
00:06:15.208 : en:Chapter 2
00:11:54.046 : en:Chapter 3
00:18:37.407 : en:Chapter 4
00:23:39.042 : en:Chapter 5
00:28:31.292 : en:Chapter 6
00:31:39.564 : en:Chapter 7
00:35:33.089 : en:Chapter 8
00:40:38.519 : en:Chapter 9
00:47:16.708 : en:Chapter 10
00:54:15.794 : en:Chapter 11
00:58:41.518 : en:Chapter 12
01:06:06.754 : en:Chapter 13
01:12:45.778 : en:Chapter 14
01:18:41.717 : en:Chapter 15
01:23:22.706 : en:Chapter 16



Скачать Хатико.Самый.верный.друг.Hachiko.A.dog's.story.(Лассе.Халльстрём.Lasse.Hallstrem).[2009.драма.семейный.BDRip-AVC].[Лицензия].torrent без регистрации
Золото ЗОЛОТАЯ РАЗДАЧА! СКАЧАННОЕ НЕ ЗАСЧИТЫВАЕТСЯ! Золото
Дата: Зарегистрирован   [ Тип: внутренний ] Как тут cкачать?
MAGNET ссылка
MAGNET ссылка


Скачать .torrent

12 KB

Статус: проверено DHT
Скачан: торрент - 336 раз, раздача полностью - 296 раз
Размер: 2,2 GB
Оценка:  5 (Голосов: 2)
Поблагодарили: 8
Поделиться ссылкой на эту раздачу с друзьями:
В контактеFacebookОдноклассникиTwitterLivejournalМой МирLiveinternet
 

 

gwegwrb

[] 

Леон - файл то битый! Ничем не воспроизвёлся. Сколько я не пробовал. Переделай.
 
Показать сообщения:    


Вы не можете начинать темы
Вы не можете отвечать на сообщения
Вы не можете редактировать свои сообщения
Вы не можете удалять свои сообщения
Вы не можете голосовать в опросах
Вы не можете прикреплять файлы к сообщениям
Вы можете скачивать файлы