Loading...
Error

/ Blackjack ( / John Woo) [1998, , , DVDRip] [MVO]

 
1,46 GB   |    :  144

: 19

 

leon030982

[] 


: ,
: ,
: 1998
: 01:48:02
: ([color=darkred]
)
C:
: / John Woo

: , , , , , , , , ...
: , . , . , . . , . , ,
: DVDRip
: AVI
: 688x512 (1.34:1), 25 fps, XviD build 65 ~1728 kbps avg, 0.20 bit/pixel
: 48 kHz, AC3 Dolby Digital, 2/0 (L,R) ch, ~192 kbps

:

Complete name : \BlackJack.DVDRip.XviD.1.45_Olu6ka.avi
Format : AVI
Format/Info : Audio Video Interleave
File size : 1.46 GiB
Duration : 1h 48mn
Overall bit rate : 1 930 Kbps
Writing application : VirtualDubMod 1.5.10.3 | www.virtualdub-fr.org || (build 2550/release)
Video
ID : 0
Format : MPEG-4 Visual
Format profile : Advanced Simple@L5
Format settings, BVOP : Yes
Format settings, QPel : No
Format settings, GMC : No warppoints
Format settings, Matrix : Custom
Codec ID : XVID
Codec ID/Hint : XviD
Duration : 1h 48mn
Bit rate : 1 729 Kbps
Width : 688 pixels
Height : 512 pixels
Display aspect ratio : 4:3
Frame rate : 25.000 fps
Color space : YUV
Chroma subsampling : 4:2:0
Bit depth : 8 bits
Scan type : Progressive
Bits/(Pixel*Frame) : 0.196
Stream size : 1.30 GiB (90%)
Writing library : XviD 65
Audio
ID : 1
Format : AC-3
Format/Info : Audio Coding 3
Mode extension : CM (complete main)
Codec ID : 2000
Duration : 1h 48mn
Bit rate mode : Constant
Bit rate : 192 Kbps
Channel(s) : 2 channels
Channel positions : Front: L R
Sampling rate : 48.0 KHz
Bit depth : 16 bits
Stream size : 148 MiB (10%)
Alignment : Split accross interleaves
Interleave, duration : 40 ms (1.00 video frame)
Interleave, preload duration : 500 ms



.Blackjack.(..John.Woo).[1998...DVDRip].[MVO].torrent
  ! ! 
:   [ : ] c?
MAGNET
MAGNET


.torrent

15 KB

: DHT
: - 144 , - 18
: 1,46 GB
5 (: 1)
: 1
:
 FacebookTwitterLivejournal Liveinternet
 

 
: