Loading...
Error

Скачать Миротворец / The Peacemaker (Мими Ледер / Mimi Leder) [1997 г., боевик, триллер, BDRip-AVC] 2х[DVO] + [Original eng] + [Subs] (Rus, Eng) торрент без регистрации

 
Статистика раздачи
Размер:  3,71 GB   |    Скачан:  125 раз
Сидов:  1  [  0 KB/s  ]  
 
Автор Сообщение

leon030982

[] 

Миротворец / The Peacemaker
«How do you get the world's attention?»
Год выпуска: 1997
Выпущено: США / DreamWorks SKG
Жанр: боевик, триллер
Продолжительность: 02:03:50
Перевод: Профессиональный (двухголосый / 2 варианта) + Английский (оригинал)
Режиссер: Мими Ледер / Mimi Leder
В ролях: Джордж Клуни, Николь Кидман, Марчел Юреш, Александр Балуев, Рене Медвесек, Гари Вернтц, Рэндолл Батинкофф, Джим Хейни, Александр Штробель, Холт МакКэллани, Армин Мюллер-Шталь, Александр Песков
Сюжет: Русский поезд, который везет ядерные ракеты с целью их уничтожения, частично поврежден взрывом где-то в отдалённом районе на юге России. Соответствующие сигналы поступают в ядерный центр американского Белого Дома, где этим происшествием начинает заниматься специалист по ядерной физике и полковник спецслужбы армии США. Они выясняют, что опасное оружие было похищено русским генералом с целью продажи международным террористам, и в последний момент предотвращают большую катастрофу.
IMDB // КиноПоиск // Сэмпл
Качество видео: BDRip-AVC =>
Формат: MKV
Видео кодек: H.264
Аудио кодек: AC3
Видео: H.264, 988 x 422, 23.976 fps, ~2942 Кбит/с
Аудио #1: AC3, 448 Кбит/с, 48 kHz (6 ch) Russian
Аудио #2: AC3, 448 Кбит/с, 48 kHz (6 ch) Russian

Аудио #3: AC3, 448 Кбит/с, 48 kHz (6 ch) English
Cубтитры: Русские, Английские
Навигация: -//-

С одной любой аудиодорожкой, рип на 2.92 Гб.
avs [info]: 988x422p 1:1 @ 24000/1001 fps (cfr)
x264 [info]: using SAR=1/1
x264 [info]: using cpu capabilities: MMX2 SSE2Fast SSSE3 FastShuffle SSE4.1 Cache64
x264 [info]: profile High, level 4.0
x264 [info]: frame I:1308 Avg QP:17.24 size: 63912 PSNR Mean Y:45.47 U:48.74 V:49.83 Avg:46.36 Global:45.88
x264 [info]: frame P:38629 Avg QP:18.62 size: 27590 PSNR Mean Y:44.70 U:48.91 V:49.93 Avg:45.69 Global:44.69
x264 [info]: frame B:138216 Avg QP:21.08 size: 11453 PSNR Mean Y:42.92 U:47.89 V:49.10 Avg:44.03 Global:43.62
x264 [info]: consecutive B-frames: 1.9% 2.7% 9.0% 21.5% 17.7% 32.8% 6.3% 2.6% 1.7% 1.5% 1.0% 0.6% 0.7%
x264 [info]: mb I I16..4: 2.1% 81.9% 16.0%
x264 [info]: mb P I16..4: 0.5% 17.8% 2.5% P16..4: 39.3% 28.9% 7.8% 0.6% 0.4% skip: 2.1%
x264 [info]: mb B I16..4: 0.0% 1.5% 0.2% B16..8: 45.5% 17.0% 5.4% direct: 7.2% skip:23.2% L0:44.2% L1:44.2% BI:11.7%
x264 [info]: 8x8 transform intra:84.8% inter:62.7%
x264 [info]: direct mvs spatial:100.0% temporal:0.0%
x264 [info]: coded y,uvDC,uvAC intra: 95.8% 86.0% 60.3% inter: 40.1% 23.4% 2.6%
x264 [info]: i16 v,h,dc,p: 21% 35% 8% 36%
x264 [info]: i8 v,h,dc,ddl,ddr,vr,hd,vl,hu: 10% 8% 9% 10% 14% 13% 13% 12% 12%
x264 [info]: i4 v,h,dc,ddl,ddr,vr,hd,vl,hu: 14% 11% 2% 9% 14% 14% 13% 11% 12%
x264 [info]: i8c dc,h,v,p: 40% 24% 19% 17%
x264 [info]: Weighted P-Frames: Y:7.4% UV:2.9%
x264 [info]: ref P L0: 43.9% 13.3% 17.0% 6.7% 5.6% 3.9% 3.6% 2.0% 2.0% 1.7% 0.3% 0.0%
x264 [info]: ref B L0: 69.7% 12.5% 6.5% 3.6% 2.7% 2.2% 1.8% 0.7% 0.3%
x264 [info]: ref B L1: 91.8% 8.2%
x264 [info]: SSIM Mean Y:0.9735898 (15.782db)
x264 [info]: PSNR Mean Y:43.323 U:48.118 V:49.286 Avg:44.404 Global:43.841 kb/s:2941.76
x264 [total]: encoded 178153 frames, 4.01 fps, 2941.76 kb/s
General
Unique ID : 214077500629792922582617775549710112250 (0xA10DD3AEF2C5470D90A31A6058FC95FA)
Complete name : D:\VIDEO\The.Peacemaker.1997.BDRip-AVC.Rus.Eng.mkv
Format : Matroska
File size : 3.71 GiB
Duration : 2h 3mn
Overall bit rate : 4 285 Kbps
Encoded date : UTC 2011-02-03 10:28:42
Writing application : mkvmerge v3.4.0 ('Rapunzel') built on May 15 2010 09:38:20
Writing library : libebml v0.8.0 + libmatroska v0.9.0
Video
ID : 1
Format : AVC
Format/Info : Advanced Video Codec
Format profile : High@L4.0
Format settings, CABAC : Yes
Format settings, ReFrames : 10 frames
Codec ID : V_MPEG4/ISO/AVC
Duration : 2h 3mn
Bit rate : 2 856 Kbps
Width : 988 pixels
Height : 422 pixels
Display aspect ratio : 2.35:1
Frame rate : 23.976 fps
Color space : YUV
Chroma subsampling : 4:2:0
Bit depth : 8 bits
Scan type : Progressive
Bits/(Pixel*Frame) : 0.286
Stream size : 2.47 GiB (67%)
Title : The Peacemaker
Writing library : x264 core 113 r1884 7313bb5
Encoding settings : cabac=1 / ref=10 / deblock=1:-2:-1 / analyse=0x3:0x133 / me=umh / subme=10 / psy=1 / psy_rd=1.10:0.00 / mixed_ref=1 / me_range=32 / chroma_me=1 / trellis=2 / 8x8dct=1 / cqm=0 / deadzone=21,11 / fast_pskip=0 / chroma_qp_offset=-2 / threads=6 / sliced_threads=0 / nr=0 / decimate=1 / interlaced=0 / constrained_intra=0 / bframes=12 / b_pyramid=2 / b_adapt=2 / b_bias=0 / direct=3 / weightb=1 / open_gop=0 / weightp=2 / keyint=250 / keyint_min=23 / scenecut=40 / intra_refresh=0 / rc_lookahead=40 / rc=crf / mbtree=0 / crf=18.2 / qcomp=0.65 / qpmin=0 / qpmax=69 / qpstep=4 / vbv_maxrate=25000 / vbv_bufsize=31250 / crf_max=0.0 / nal_hrd=none / ip_ratio=1.40 / pb_ratio=1.30 / aq=1:1.00
Language : English
Audio #1
ID : 2
Format : AC-3
Format/Info : Audio Coding 3
Mode extension : CM (complete main)
Codec ID : A_AC3
Duration : 2h 3mn
Bit rate mode : Constant
Bit rate : 448 Kbps
Channel(s) : 6 channels
Channel positions : Front: L C R, Side: L R, LFE
Sampling rate : 48.0 KHz
Bit depth : 16 bits
Compression mode : Lossy
Stream size : 397 MiB (10%)
Title : Профессиональный (двухголосый) №1
Language : Russian
Audio #2
ID : 3
Format : AC-3
Format/Info : Audio Coding 3
Mode extension : CM (complete main)
Codec ID : A_AC3
Duration : 2h 3mn
Bit rate mode : Constant
Bit rate : 448 Kbps
Channel(s) : 6 channels
Channel positions : Front: L C R, Side: L R, LFE
Sampling rate : 48.0 KHz
Bit depth : 16 bits
Compression mode : Lossy
Stream size : 397 MiB (10%)
Title : Профессиональный (двухголосый) №2
Language : Russian
Audio #3
ID : 4
Format : AC-3
Format/Info : Audio Coding 3
Mode extension : CM (complete main)
Codec ID : A_AC3
Duration : 2h 3mn
Bit rate mode : Constant
Bit rate : 448 Kbps
Channel(s) : 6 channels
Channel positions : Front: L C R, Side: L R, LFE
Sampling rate : 48.0 KHz
Bit depth : 16 bits
Compression mode : Lossy
Stream size : 397 MiB (10%)
Title : Английский
Language : English
Text #1
ID : 5
Format : UTF-8
Codec ID : S_TEXT/UTF8
Codec ID/Info : UTF-8 Plain Text
Title : Русские
Language : Russian
Text #2
ID : 6
Format : UTF-8
Codec ID : S_TEXT/UTF8
Codec ID/Info : UTF-8 Plain Text
Title : Английские (forced) №1
Language : English
Text #3
ID : 7
Format : UTF-8
Codec ID : S_TEXT/UTF8
Codec ID/Info : UTF-8 Plain Text
Title : Английские (forced) №2
Language : English
Text #4
ID : 8
Format : UTF-8
Codec ID : S_TEXT/UTF8
Codec ID/Info : UTF-8 Plain Text
Title : Английские
Language : English



Скачать Миротворец.The.Peacemaker.(Мими.Ледер.Mimi.Leder).[1997.г.боевик.триллер.BDRip-AVC].2х[DVO].+.[Original.eng].+.[Subs].(Rus.Eng).torrent без регистрации
Золото ЗОЛОТАЯ РАЗДАЧА! СКАЧАННОЕ НЕ ЗАСЧИТЫВАЕТСЯ! Золото
Дата: Зарегистрирован   [ Тип: внутренний ] Как тут cкачать?
MAGNET ссылка
MAGNET ссылка


Скачать .torrent

19 KB

Статус: проверено DHT
Скачан: торрент - 125 раз, раздача полностью - 2 раз
Размер: 3,71 GB
Оценка:  - (Голосов: 0)
Поблагодарили: 2
Поделиться ссылкой на эту раздачу с друзьями:
В контактеFacebookОдноклассникиTwitterLivejournalМой МирLiveinternet
 

 
Показать сообщения:    


Вы не можете начинать темы
Вы не можете отвечать на сообщения
Вы не можете редактировать свои сообщения
Вы не можете удалять свои сообщения
Вы не можете голосовать в опросах
Вы не можете прикреплять файлы к сообщениям
Вы можете скачивать файлы