Loading...
Error

Скачать Иллюзия убийства / F|X - Murder by Illusion (Роберт Мэндел) [1986 г., боевик, детектив, триллер, DVDRip][MVO+Dub+Original+sub] торрент без регистрации

 
Статистика раздачи
Размер:  1,87 GB   |    Скачан:  161 раз
Сидов:  1  [  0 KB/s  ]  
 
Автор Сообщение

Shara

[] 

Иллюзия убийства
F/X
F/X - Murder by Illusion

Год выпуска: 1986
Страна: США
Жанр: боевик, детектив, триллер
Продолжительность: 01:43:51
Перевод: профессиональный многоголосый закадровый, профессиональный дубляж, субтитры
Оригинальная аудиодорожка: да
Русские субтитры: да



Режиссер: Роберт Мэндел / Robert Mandel

В главных ролях: Брайан Браун /Bryan Brown/, Брайан Деннехи /Brian Dennehy/, Дайэн Венора /Diane Venora/, Клифф Де Янг /Cliff De Young/, Мэйсон Эдамс /Mason Adams/, Джерри Орбак /Jerry Orbach/

Описание:
В шоу-бизнесе нет лучшего мастера спецэффектов, чем Ролли Тайлер. Его уникальные способности создавать на экране грандиозные иллюзии приносят ему множество заказов от крупнейших студий Голливуда. На этот раз его заказчиком становится правительство: он должен разыграть убийство важного свидетеля ... Обманутый и преследуемый бывшими работодателями и полицией - Тайлер быстро понимает, что никому не может доверять, и единственное средство сохранить жизнь - его несравненное искусство мистификации.

минутный СЭМПЛ - 19,3 Mb

Качество: DVDRip
Формат: AVI
Источник:
Видео кодек: XviD
Аудио кодек: AC3
Видео: 25 кадр/сек (720x384), битрейт 1976 Кбит/сек, 0.286 бит/пиксель
Аудио: Русский (Dolby AC3, 2 ch), Русский (Dolby AC3, 2 ch), Английский (Dolby AC3, 2 ch)
Audio #1: AC3, 2/0 ch, 192 Kbps - русский профессиональный многоголосый закадровый
Audio #2: AC3, 2/0 ch, 192 Kbps - русский профессиональный дубляж

Audio #3: AC3, 2/0 ch, 192 Kbps - английский оригинал
Субтитры: русские (VobSub) - отдельным файлом






Код:

Format                           : AVI
Format/Info                      : Audio Video Interleave
File size                        : 1.87 GiB
Duration                         : 1h 43mn
Overall bit rate                 : 2 571 Kbps

Video
ID                               : 0
Format                           : MPEG-4 Visual
Format profile                   : AdvancedSimple@L5
Format settings, BVOP            : Yes
Format settings, QPel            : No
Format settings, GMC             : No warppoints
Format settings, Matrix          : Default (MPEG)
Muxing mode                      : Packed bitstream
Codec ID                         : XVID
Codec ID/Hint                    : XviD
Duration                         : 1h 43mn
Bit rate                         : 1 976 Kbps
Width                            : 720 pixels
Height                           : 384 pixels
Display aspect ratio             : 1.875
Frame rate                       : 25.000 fps
Resolution                       : 24 bits
Colorimetry                      : 4:2:0
Scan type                        : Progressive
Bits/(Pixel*Frame)               : 0.286
Stream size                      : 1.43 GiB (77%)
Writing library                  : XviD 1.2.0.dev47 (UTC 2006-11-01)

Audio #1
ID                               : 1
Format                           : AC-3
Format/Info                      : Audio Coding 3
Codec ID                         : 2000
Duration                         : 1h 43mn
Bit rate mode                    : Constant
Bit rate                         : 192 Kbps
Channel(s)                       : 2 channels
Channel positions                : L R
Sampling rate                    : 48.0 KHz
Stream size                      : 143 MiB (7%)
Alignment                        : Split accross interleaves
Interleave, duration             : 40 ms (1.00 video frame)
Interleave, preload duration     : 500 ms

Audio #2
ID                               : 2
Format                           : AC-3
Format/Info                      : Audio Coding 3
Codec ID                         : 2000
Duration                         : 1h 43mn
Bit rate mode                    : Constant
Bit rate                         : 192 Kbps
Channel(s)                       : 2 channels
Channel positions                : L R
Sampling rate                    : 48.0 KHz
Stream size                      : 143 MiB (7%)
Alignment                        : Split accross interleaves
Interleave, duration             : 40 ms (1.00 video frame)
Interleave, preload duration     : 500 ms

Audio #3
ID                               : 3
Format                           : AC-3
Format/Info                      : Audio Coding 3
Codec ID                         : 2000
Duration                         : 1h 43mn
Bit rate mode                    : Constant
Bit rate                         : 192 Kbps
Channel(s)                       : 2 channels
Channel positions                : L R
Sampling rate                    : 48.0 KHz
Stream size                      : 143 MiB (7%)
Alignment                        : Split accross interleaves
Interleave, duration             : 40 ms (1.00 video frame)
Interleave, preload duration     : 500 ms



Скачать Иллюзия.убийства.F|X.-.Murder.by.Illusion.(Роберт.Мэндел).[1986.г.боевик.детектив.триллер.DVDRip][MVO+Dub+Original+sub].torrent без регистрации
Золото ЗОЛОТАЯ РАЗДАЧА! СКАЧАННОЕ НЕ ЗАСЧИТЫВАЕТСЯ! Золото
Дата: Зарегистрирован   [ Тип: внутренний ] Как тут cкачать?
MAGNET ссылка
MAGNET ссылка


Скачать .torrent

19 KB

Статус: проверено DHT
Скачан: торрент - 161 раз, раздача полностью - 40 раз
Размер: 1,87 GB
Оценка:  - (Голосов: 0)
Поблагодарили: 2
Поделиться ссылкой на эту раздачу с друзьями:
В контактеFacebookОдноклассникиTwitterLivejournalМой МирLiveinternet
 

 
Показать сообщения:    


Вы не можете начинать темы
Вы не можете отвечать на сообщения
Вы не можете редактировать свои сообщения
Вы не можете удалять свои сообщения
Вы не можете голосовать в опросах
Вы не можете прикреплять файлы к сообщениям
Вы можете скачивать файлы