Loading...
Error

Скачать Иллюзия убийства 2 / F|X2 - The Deadly Art Of Illusion (Ричард Фрэнклин) [1991 г., боевик, детектив, триллер, DVDRip][MVO+Dub+Original+sub] торрент без регистрации

 
Статистика раздачи
Размер:  1,86 GB   |    Скачан:  159 раз
Сидов:  1  [  0 KB/s  ]  
 
Автор Сообщение

Shara

[] 

Иллюзия убийства 2
F/X2
F/X 2: The Deadly Art of Illusion

Год выпуска: 1991
Страна: США
Жанр: боевик, детектив, триллер
Продолжительность: 01:43:25
Перевод: профессиональный многоголосый закадровый, профессиональный дубляж, субтитры
Оригинальная аудиодорожка: да
Русские субтитры: да



Режиссер: Ричард Фрэнклин / Richard Franklin

В главных ролях: Брайан Браун /Bryan Brown/, Брайан Деннехи /Brian Dennehy/, Филип Боско /Philip Bosco/, Кевин Дж. О'Коннор /Kevin J. O'Connor/, Рэйчел Тикотин /Rachel Ticotin/

Описание:
Спустя пять лет после своего первого опасного приключения, Ролли Тайлер оставил бизнес спецэффектов и зарабатывает на жизнь проектированием дорогих электронных игрушек. За помощью к нему обращается бывший супруг его подружки - полицейский детектив. Полицейским нужно достоверно разыграть сцену, чтобы поймать серийного убийцу, и Ролли в очередной раз соблазняется опасным миром киноиллюзий ... Чтобы разоблачить опасные замыслы преступников, он может полагаться только на свои изобретательные трюки и старую дружбу с детективом Лео Маккарти - если, конечно, сумеет остаться в живых.

минутный СЭМПЛ - 15,0 Mb

Качество: DVDRip
Формат: AVI
Источник:
Видео кодек: XviD
Аудио кодек: AC3
Видео: 25 кадр/сек (720x384), битрейт 1982 Кбит/сек, 0.286 бит/пиксель
Аудио: Русский (Dolby AC3, 2 ch), Русский (Dolby AC3, 2 ch), Английский (Dolby AC3, 2 ch)
Audio #1: AC3, 2/0 ch, 192 Kbps - русский профессиональный многоголосый закадровый
Audio #2: AC3, 2/0 ch, 192 Kbps - русский профессиональный дубляж

Audio #3: AC3, 2/0 ch, 192 Kbps - английский оригинал
Субтитры: русские (VobSub) - отдельным файлом






Код:

General
Format                           : AVI
Format/Info                      : Audio Video Interleave
File size                        : 1.86 GiB
Duration                         : 1h 43mn
Overall bit rate                 : 2 577 Kbps

Video
ID                               : 0
Format                           : MPEG-4 Visual
Format profile                   : AdvancedSimple@L5
Format settings, BVOP            : Yes
Format settings, QPel            : No
Format settings, GMC             : No warppoints
Format settings, Matrix          : Default (MPEG)
Muxing mode                      : Packed bitstream
Codec ID                         : XVID
Codec ID/Hint                    : XviD
Duration                         : 1h 43mn
Bit rate                         : 1 982 Kbps
Width                            : 720 pixels
Height                           : 384 pixels
Display aspect ratio             : 1.875
Frame rate                       : 25.000 fps
Resolution                       : 24 bits
Colorimetry                      : 4:2:0
Scan type                        : Progressive
Bits/(Pixel*Frame)               : 0.287
Stream size                      : 1.43 GiB (77%)
Writing library                  : XviD 1.2.0.dev47 (UTC 2006-11-01)

Audio #1
ID                               : 1
Format                           : AC-3
Format/Info                      : Audio Coding 3
Codec ID                         : 2000
Duration                         : 1h 43mn
Bit rate mode                    : Constant
Bit rate                         : 192 Kbps
Channel(s)                       : 2 channels
Channel positions                : L R
Sampling rate                    : 48.0 KHz
Stream size                      : 142 MiB (7%)
Alignment                        : Split accross interleaves
Interleave, duration             : 40 ms (1.00 video frame)
Interleave, preload duration     : 500 ms

Audio #2
ID                               : 2
Format                           : AC-3
Format/Info                      : Audio Coding 3
Codec ID                         : 2000
Duration                         : 1h 43mn
Bit rate mode                    : Constant
Bit rate                         : 192 Kbps
Channel(s)                       : 2 channels
Channel positions                : L R
Sampling rate                    : 48.0 KHz
Stream size                      : 142 MiB (7%)
Alignment                        : Split accross interleaves
Interleave, duration             : 40 ms (1.00 video frame)
Interleave, preload duration     : 500 ms

Audio #3
ID                               : 3
Format                           : AC-3
Format/Info                      : Audio Coding 3
Codec ID                         : 2000
Duration                         : 1h 43mn
Bit rate mode                    : Constant
Bit rate                         : 192 Kbps
Channel(s)                       : 2 channels
Channel positions                : L R
Sampling rate                    : 48.0 KHz
Stream size                      : 142 MiB (7%)
Alignment                        : Split accross interleaves
Interleave, duration             : 40 ms (1.00 video frame)
Interleave, preload duration     : 500 ms



Скачать Иллюзия.убийства.2.F|X2.-.The.Deadly.Art.Of.Illusion.(Ричард.Фрэнклин).[1991.г.боевик.детектив.триллер.DVDRip][MVO+Dub+Original+sub].torrent без регистрации
Золото ЗОЛОТАЯ РАЗДАЧА! СКАЧАННОЕ НЕ ЗАСЧИТЫВАЕТСЯ! Золото
Дата: Зарегистрирован   [ Тип: внутренний ] Как тут cкачать?
MAGNET ссылка
MAGNET ссылка


Скачать .torrent

19 KB

Статус: проверено DHT
Скачан: торрент - 159 раз, раздача полностью - 21 раз
Размер: 1,86 GB
Оценка:  - (Голосов: 0)
Поблагодарили: 2
Поделиться ссылкой на эту раздачу с друзьями:
В контактеFacebookОдноклассникиTwitterLivejournalМой МирLiveinternet
 

 
Показать сообщения:    


Вы не можете начинать темы
Вы не можете отвечать на сообщения
Вы не можете редактировать свои сообщения
Вы не можете удалять свои сообщения
Вы не можете голосовать в опросах
Вы не можете прикреплять файлы к сообщениям
Вы можете скачивать файлы