Loading...
Error

Скачать Красивая жизнь / Как разобраться с делами / Taking Care of Business (Артур Хиллер / Arthur Hiller) [1990, комедия, WEB-DLRip] [MVO] + [Dub] + 2x[AVO] торрент без регистрации

 
Статистика раздачи
Размер:  1,9 GB   |    Скачан:  121 раз
Сидов:  1  [  0 KB/s  ]  
 
Автор Сообщение

leon030982

[] 

Красивая жизнь / Как разобраться с делами / Taking Care of Business


Год выпуска: 1990
Страна: США
Жанр: Комедия
Продолжительность: 01:43:38
Перевод №1: Профессиональный (многоголосый, закадровый) [ОРТ]
Перевод №2: Профессиональный (дублированный) [РТР] - (отдельно)
Перевод №3: Авторский (одноголосый, закадровый) [Андрей Гаврилов] - (отдельно)
Перевод №4: Авторский (одноголосый, закадровый) [Алексей Михалев] - (отдельно)
Cубтитры: нет

Режиссер: Артур Хиллер / Arthur Hiller

В ролях: Джеймс Белуши, Чарльз Гроден, Анни де Салво, Лорин Локин, Эктор Элисондо, Гэйтс МакФэдден

Описание: Джимми Дворски любит две вещи - красивые машины и бейсбол. И надо же такому случиться, чтоб отбывая срок за угоны машин, он выигрывает в радиовикторине билеты на финал чемпионата, в котором будет участвовать команда из его родного Чикаго. Матч состоится в Лос-Анжелесе, где Джимми "сидит", в день, когда его должны выпустить, но!- утром, а ведь он должен ещё накануне забрать выигранные билеты. И ради того, чтоб попасть на матч он сбегает из тюрьмы, и... оказывается случайным обладателем делового дневника вице-президента рекламного концерна, прилетевшего в Лос-Анжелесе Спенсера Барнса, потерявшего ежедневник в аэропорту. Дворски рад бы просто вернуть находку за вознаграждение, но окружающие принимают его за самого Барнса, и вот вчерашний заключённый уже играет в теннис с новым клиентом, ведёт деловые переговоры, ухаживает за дочерью хозяина, а сам Спенсер Баренс в это время пытается вернуться на "своё место"...



Качество видео: WEB-DLRip [исх. WEB-DL 720p]
Формат видео: AVI
Видео кодек: XviD
Аудио кодек: AC3
Видео: 704x384 (1.83:1), 23.976 fps, XviD build 50, 1738 kbps avg, 0.27 bit/pixel
Аудио 1: 48 kHz, AC3 Dolby Digital, 2/0 (L,R) ch, 192.00 kbps avg [MVO]
Аудио 2: 48 kHz, AC3 Dolby Digital, 2/0 (L,R) ch, 192.00 kbps avg [Dub] - (отдельно)
Аудио 3: 48 kHz, AC3 Dolby Digital, 2/0 (L,R) ch, 192.00 kbps avg [AVO] - (отдельно)
Аудио 4: 48 kHz, AC3 Dolby Digital, 2/0 (L,R) ch, 192.00 kbps avg [AVO] - (отдельно)
General
Complete name : D:\Мои раздачи\Taking Care of Business_WEB-DLRip_RG_All_Films\Taking Care of Business_WEB-DLRip_RG_All_Films.avi
Format : AVI
Format/Info : Audio Video Interleave
File size : 1.46 GiB
Duration : 1h 48mn
Overall bit rate : 1 940 Kbps
Writing application : VirtualDubMod 1.6.0.0 SURROUND (build 2560/release)
Writing library : VirtualDubMod build 2560/release

Video
ID : 0
Format : MPEG-4 Visual
Format profile : Advanced Simple@L5
Format settings, BVOP : Yes
Format settings, QPel : No
Format settings, GMC : No warppoints
Format settings, Matrix : Custom
Codec ID : XVID
Codec ID/Hint : XviD
Duration : 1h 48mn
Bit rate : 1 738 Kbps
Width : 704 pixels
Height : 384 pixels
Display aspect ratio : 16:9
Frame rate : 23.976 fps
Color space : YUV
Chroma subsampling : 4:2:0
Bit depth : 8 bits
Scan type : Progressive
Compression mode : Lossy
Bits/(Pixel*Frame) : 0.268
Stream size : 1.31 GiB (90%)
Writing library : XviD 1.2.1 (UTC 2008-12-04)

Audio 1
ID : 1
Format : AC-3
Format/Info : Audio Coding 3
Mode extension : CM (complete main)
Codec ID : 2000
Duration : 1h 48mn
Bit rate mode : Constant
Bit rate : 192 Kbps
Channel(s) : 2 channels
Channel positions : Front: L R
Sampling rate : 48.0 KHz
Bit depth : 16 bits
Compression mode : Lossy
Stream size : 148 MiB (10%)
Alignment : Split accross interleaves
Interleave, duration : 42 ms (1.00 video frame)
Interleave, preload duration : 500 ms

Audio 2 (отдельно)
Format : AC-3
Format/Info : Audio Coding 3
Mode extension : CM (complete main)
Duration : 1h 48mn
Bit rate mode : Constant
Bit rate : 192 Kbps
Channel(s) : 2 channels
Channel positions : Front: L R
Sampling rate : 48.0 KHz
Bit depth : 16 bits
Compression mode : Lossy
Stream size : 148 MiB (100%)

Audio 3 (отдельно)
Format : AC-3
Format/Info : Audio Coding 3
Mode extension : CM (complete main)
Duration : 1h 48mn
Bit rate mode : Constant
Bit rate : 192 Kbps
Channel(s) : 2 channels
Channel positions : Front: L R
Sampling rate : 48.0 KHz
Bit depth : 16 bits
Compression mode : Lossy
Stream size : 148 MiB (100%)

Audio 4 (отдельно)
Format : AC-3
Format/Info : Audio Coding 3
Mode extension : CM (complete main)
Duration : 1h 48mn
Bit rate mode : Constant
Bit rate : 192 Kbps
Channel(s) : 2 channels
Channel positions : Front: L R
Sampling rate : 48.0 KHz
Bit depth : 16 bits
Compression mode : Lossy
Stream size : 148 MiB (100%)

Обновлено на лучшее качество видео WEB-DLRip !



Скачать Красивая.жизнь.Как.разобраться.с.делами.Taking.Care.of.Business.(Артур.Хиллер.Arthur.Hiller).[1990.комедия.WEB-DLRip].[MVO].+.[Dub].+.2x[AVO].torrent без регистрации
Золото ЗОЛОТАЯ РАЗДАЧА! СКАЧАННОЕ НЕ ЗАСЧИТЫВАЕТСЯ! Золото
Дата: Зарегистрирован   [ Тип: внутренний ] Как тут cкачать?
MAGNET ссылка
MAGNET ссылка


Скачать .torrent

20 KB

Статус: проверено DHT
Скачан: торрент - 121 раз, раздача полностью - 1 раз
Размер: 1,9 GB
Оценка:  5 (Голосов: 1)
Поблагодарили: 2
Поделиться ссылкой на эту раздачу с друзьями:
В контактеFacebookОдноклассникиTwitterLivejournalМой МирLiveinternet
 

 

leon030982

[] 

Цитата:

Обновлено на лучшее качество видео WEB-DLRip az
 
Показать сообщения:    


Вы не можете начинать темы
Вы не можете отвечать на сообщения
Вы не можете редактировать свои сообщения
Вы не можете удалять свои сообщения
Вы не можете голосовать в опросах
Вы не можете прикреплять файлы к сообщениям
Вы можете скачивать файлы