Loading...
Error

Скачать Форс-мажоры / Suits (Полный 2-ой сезон) (Кевин Брэй / Kevin Bray) [2012, Драма, WEB-DL] [720p] [DVO] (NewStudio) + [Original] + [Eng] Sub) торрент без регистрации

 
Статистика раздачи
Размер:  22,55 GB   |    Скачан:  213 раз
Сидов:  1  [  0 KB/s  ]  
 
Автор Сообщение

leon030982

[] 

Форс-мажоры / Костюмы в законе / Suits

Год выпуска: 2012
Страна: США / USA Network
Жанр: Драма
Продолжительность: ~ 00:42:00
Перевод: Профессиональный двухголосый закадровый [NewStudio]
Русские субтитры: нет
Субтитры: English
Режиссёр: Кевин Брэй / Kevin Bray
В ролях: Гэбриел Махт, Патрик Адамс, Рик Хоффман, Меган Маркл, Сара Рафферти, Джина Торрес, Ванесса Рэй, Max Topplin, Ребекка Шалл, Julian DeZotti
Описание: Убегая после неудачной попытки сбыта наркотиков, юрист-самоучка Майк Росс, выдающий себя за выпускника Гарварда, попадает на собеседование к одному из лучших адвокатов по сделкам Нью-Йорка Харви Спектру. Устав от скучных соискателей, мечтающих «верой и правдой служить букве закона», Харви рискует и нанимает Майка: у парня врожденный талант и фотографическая память. Так рождается один из самых неоднозначных, но, в то же время, и самых блестящих тандемов законников на Манхэттене.


РАЗДАЧА ОТ: by vlaluk
Дорожка №1 получена наложением выделенного голоса на центр декодированного AC3.
Озвучка: Константин Погодаев, Анна Тух (Бяко Рекордс)
Перевод: Ptyza
Качество: WEB-DL 720p
Формат: MKV
Видео кодек: H.264
Аудио кодек: AC3
Видео: 1280x720 at 23.976 fps, MPEG-4 AVC, ~4000 kbps avg
Аудио: 48 kHz, AC3, 3/2 (L,C,R,l,r) + LFE ch, ~384.00 kbps avg |Двухголосый закадровый, NewStudio|
Аудио: 48 kHz, AC3, 3/2 (L,C,R,l,r) + LFE ch, ~384.00 kbps avg
D:\Filmi\Suits.S02.720p.WEB-DL.Rus.Eng.HDCLUB\Suits.S02E01.720p.WEB-DL.Rus.Eng.HDCLUB.mkv
General
Unique ID : 199240524088674902112198927676019200285 (0x95E4544307605F1F8C358A4F1E9E511D)
Complete name : D:\Filmi\Suits.S02.720p.WEB-DL.Rus.Eng.HDCLUB\Suits.S02E01.720p.WEB-DL.Rus.Eng.HDCLUB.mkv
Format : Matroska
Format version : Version 2
File size : 1.58 GiB
Duration : 47mn 2s
Overall bit rate : 4 797 Kbps
Movie name : Suits [Season 2] (2011) - Release for HDClub by vlaluk
Encoded date : UTC 2012-06-19 18:03:19
Writing application : mkvmerge v4.8.0 ('I Got The...') ñáîðêà îò May 24 2011 03:12:58
Writing library : libebml v1.2.0 + libmatroska v1.1.0
Video #1
ID : 1
Format : AVC
Format/Info : Advanced Video Codec
Format profile : High@L3.1
Format settings, CABAC : No
Format settings, ReFrames : 2 frames
Codec ID : V_MPEG4/ISO/AVC
Duration : 47mn 2s
Bit rate : 3 933 Kbps
Width : 1 280 pixels
Height : 720 pixels
Display aspect ratio : 16:9
Frame rate : 23.976 fps
Color space : YUV
Chroma subsampling : 4:2:0
Bit depth : 8 bits
Scan type : Progressive
Bits/(Pixel*Frame) : 0.178
Stream size : 1.29 GiB (82%)
Title : Season 2, Episode 01: She Knows @ Release for HDClub by vlaluk
Language : English
Default : Yes
Forced : No
Color primaries : BT.709-5, BT.1361, IEC 61966-2-4, SMPTE RP177
Transfer characteristics : BT.709-5, BT.1361
Matrix coefficients : BT.709-5, BT.1361, IEC 61966-2-4 709, SMPTE RP177
Audio #2
ID : 2
Format : AC-3
Format/Info : Audio Coding 3
Mode extension : CM (complete main)
Codec ID : A_AC3
Duration : 47mn 2s
Bit rate mode : Constant
Bit rate : 384 Kbps
Channel(s) : 6 channels
Channel positions : Front: L C R, Side: L R, LFE
Sampling rate : 48.0 KHz
Bit depth : 16 bits
Compression mode : Lossy
Stream size : 129 MiB (8%)
Title : DD 5.1 @ 384 kbps @ NewStudio
Language : Russian
Default : Yes
Forced : No
Audio #3
ID : 3
Format : AC-3
Format/Info : Audio Coding 3
Mode extension : CM (complete main)
Codec ID : A_AC3
Duration : 47mn 2s
Bit rate mode : Constant
Bit rate : 384 Kbps
Channel(s) : 6 channels
Channel positions : Front: L C R, Side: L R, LFE
Sampling rate : 48.0 KHz
Bit depth : 16 bits
Compression mode : Lossy
Stream size : 129 MiB (8%)
Title : DD 5.1 @ 384 kbps
Language : English
Default : No
Forced : No
Text #4
ID : 4
Format : UTF-8
Codec ID : S_TEXT/UTF8
Codec ID/Info : UTF-8 Plain Text
Title : English @ SRT
Language : English
Default : No
Forced : No


Внимание! Раздача ведётся путём добавления новых серий; при каждом добавлении создётся новый торрент. Чтобы начать докачку новой серии, пользователям необходимо сделать следующее: (1) остановить скачивание, (2) удалить старый торрент у себя из клиента (старые серии удалять не надо), (3) скачать новый торрент и запустить его у себя в клиенте вместо старого, при этом указать клиенту путь в старую папку куда и должно происходить скачивание новых серий.
Ваш клиент при этом должен произвести хеширование (проверку) старой папки (если не производит сам - помогите ему сделать это), и будет докачивать только те серии которых у вас ещё нет. Старые серии при этом не удаляются, а продолжают раздаваться!
Eсли вы уже удалили старые серии, то предотвратить повторную закачку старых серий можно, отжав галочку в соответсвующих местах при запуске нового торрента.
[/color]

Добавлена финальная 16-я серия 26.02.2013



Скачать Форс-мажоры.Suits.(Полный.2-ой.сезон).(Кевин.Брэй.Kevin.Bray).[2012.Драма.WEB-DL].[720p].[DVO].(NewStudio).+.[Original].+.[Eng].Sub).torrent без регистрации
Золото ЗОЛОТАЯ РАЗДАЧА! СКАЧАННОЕ НЕ ЗАСЧИТЫВАЕТСЯ! Золото
Дата: Зарегистрирован   [ Тип: внутренний ] Как тут cкачать?
MAGNET ссылка
MAGNET ссылка


Скачать .torrent

59 KB

Статус: проверено DHT
Скачан: торрент - 213 раз, раздача полностью - 12 раз
Размер: 22,55 GB
Оценка:  4 (Голосов: 1)
Поблагодарили: 5
Поделиться ссылкой на эту раздачу с друзьями:
В контактеFacebookОдноклассникиTwitterLivejournalМой МирLiveinternet
 

 

leon030982

[] 

Добавлена финальная 16-я серия
 
Показать сообщения:    


Вы не можете начинать темы
Вы не можете отвечать на сообщения
Вы не можете редактировать свои сообщения
Вы не можете удалять свои сообщения
Вы не можете голосовать в опросах
Вы не можете прикреплять файлы к сообщениям
Вы можете скачивать файлы