Loading...
Error

Скачать Феномен / Phenomenon (Джон Тёртелтауб / Jon Turteltaub) [1996, Драма, фэнтези, мелодрама, BDRip] [MVO] + 2x[AVO] (Ю. Живов, П.Санаев) торрент без регистрации

 
Статистика раздачи
Размер:  2,13 GB   |    Скачан:  123 раза
Сидов:  1  [  0 KB/s  ]  
 
Автор Сообщение

leon030982

[] 

Феномен / Phenomenon
Страна: США, Touchstone Pictures
Жанр: Драма, фэнтези, мелодрама
Год выпуска: 1996
Продолжительность: 02:03:26
Перевод: Профессиональный (многоголосый закадровый)
Перевод 2: Авторский (одноголосый закадровый) (Ю. Живов)
Перевод 3: Авторский (одноголосый закадровый) (П.Санаев)
Cубтитры: русские, английские
Оригинальная аудиодорожка: английский

Режиссер: Джон Тёртелтауб / Jon Turteltaub

В ролях: Джон Траволта, Кира Седжвик, Форест Уитакер, Роберт Дювалл, Джефри ДеМанн, Ричард Кайли, Дэвид Галлахер, Эшли Буккилль, Тони Дженаро, Шон О’Брайан, Майкл Милхоун, Трой Эванс, Брюс А. Янг, Вито Руджинис, Брент Спайнер, Элизабет Нунциато, Эллен Гир, Сьюзэн Мерсон, Майкл Форнер

Описание: Автомеханик Джордж Мэлли безнадежно влюблен в очаровательную женщину, которая недавно переехала в его городок. Она не хочет завязывать новых отношений, и незадачливому поклоннику может помочь только чудо. И оно происходит... В день его рождения какая - то таинственная сила наделяет Джорджа уникальными умственными способностями и даром телекинеза. Возможно, теперь неприступная красавица наконец обратит на него внимание...

Качество видео: BDRip
Формат видео: AVI
Видео: XviD, 720x304 (16:9), 23.976 fps, 1414 kbps
Аудио: AC3, 48 kHz, 2/0 (L,R) ch, ~192.00 kbps [Russian] (MVO)
Аудио 2: AC3, 48 kHz, 2/0 (L,R) ch, ~192.00 kbps [Russian] (AVO - Ю.Живов)
Аудио 3: AC3, 48 kHz, 2/0 (L,R) ch, ~192.00 kbps [Russian] (AVO - П.Санаев)
Аудио 4: AC3, 48 kHz, 5/1 3/2 (L,C,R,L R, LFE) ch, ~448.00 kbps [English]
Формат субтитров: softsub (SRT) Russian, English
Общее
Полное имя : C:\Fenomjan.1996.XviD.BDRip\Fenomjan.1996.XviD.BDRip.avi
Формат : AVI
Формат/Информация : Audio Video Interleave
Профиль формата : OpenDML
Размер файла : 2,13 Гбайт
Продолжительность : 2 ч. 3 м.
Общий поток : 2467 Кбит/сек
Режиссёр : Release by ==nnlabetik==
Программа кодирования : VirtualDubMod 1.5.10.2 (build 2540/release)
Библиотека кодирования : VirtualDubMod build 2540/release
Видео
Идентификатор : 0
Формат : MPEG-4 Visual
Профиль формата : Advanced Simple@L5
Параметр BVOP формата : 1
Параметр QPel формата : Нет
Параметр GMC формата : Без точки перехода
Параметр матрицы формата : Default (H.263)
Идентификатор кодека : XVID
Идентификатор кодека/Подсказка : XviD
Продолжительность : 2 ч. 3 м.
Битрейт : 1414 Кбит/сек
Ширина : 720 пикселей
Высота : 304 пикселя
Соотношение сторон : 2,35:1
Частота кадров : 23,976 кадра/сек
Цветовое пространство : YUV
Субдискретизация насыщенности : 4:2:0
Битовая глубина : 8 бит
Тип развёртки : Прогрессивная
Метод сжатия : С потерями
Бит/(Пиксели*Кадры) : 0.269
Размер потока : 1,22 Гбайт (57%)
Библиотека кодирования : XviD 1.2.1 (UTC 2008-12-04)
Аудио #1
Идентификатор : 1
Формат : AC-3
Формат/Информация : Audio Coding 3
Расширение режима : CM (complete main)
Параметр Endianness формата : Big
Идентификатор кодека : 2000
Продолжительность : 2 ч. 3 м.
Вид битрейта : Постоянный
Битрейт : 192 Кбит/сек
Каналы : 2 канала
Расположение каналов : Front: L R
Частота : 48,0 КГц
Битовая глубина : 16 бит
Метод сжатия : С потерями
Размер потока : 169 Мбайт (8%)
Выравнивание : Разделение по промежуткам
Продолжительность промежутка : 42 мс. (1,00 видеокадр)
Время предзагрузки промежутка : 500 мс.
Аудио #2
Идентификатор : 2
Формат : AC-3
Формат/Информация : Audio Coding 3
Расширение режима : CM (complete main)
Параметр Endianness формата : Big
Идентификатор кодека : 2000
Продолжительность : 2 ч. 3 м.
Вид битрейта : Постоянный
Битрейт : 192 Кбит/сек
Каналы : 2 канала
Расположение каналов : Front: L R
Частота : 48,0 КГц
Битовая глубина : 16 бит
Метод сжатия : С потерями
Размер потока : 169 Мбайт (8%)
Выравнивание : Разделение по промежуткам
Продолжительность промежутка : 42 мс. (1,00 видеокадр)
Время предзагрузки промежутка : 500 мс.
Аудио #3
Идентификатор : 3
Формат : AC-3
Формат/Информация : Audio Coding 3
Расширение режима : CM (complete main)
Параметр Endianness формата : Big
Идентификатор кодека : 2000
Продолжительность : 2 ч. 3 м.
Вид битрейта : Постоянный
Битрейт : 192 Кбит/сек
Каналы : 2 канала
Расположение каналов : Front: L R
Частота : 48,0 КГц
Битовая глубина : 16 бит
Метод сжатия : С потерями
Размер потока : 169 Мбайт (8%)
Выравнивание : Разделение по промежуткам
Продолжительность промежутка : 42 мс. (1,00 видеокадр)
Время предзагрузки промежутка : 500 мс.
Аудио #4
Идентификатор : 4
Формат : AC-3
Формат/Информация : Audio Coding 3
Расширение режима : CM (complete main)
Параметр Endianness формата : Big
Идентификатор кодека : 2000
Продолжительность : 2 ч. 3 м.
Вид битрейта : Постоянный
Битрейт : 448 Кбит/сек
Каналы : 6 каналов
Расположение каналов : Front: L C R, Side: L R, LFE
Частота : 48,0 КГц
Битовая глубина : 16 бит
Метод сжатия : С потерями
Размер потока : 396 Мбайт (18%)
Выравнивание : Разделение по промежуткам
Продолжительность промежутка : 42 мс. (1,00 видеокадр)
Время предзагрузки промежутка : 500 мс.



Скачать Феномен.Phenomenon.(Джон.Тёртелтауб.Jon.Turteltaub).[1996.Драма.фэнтези.мелодрама.BDRip].[MVO].+.2x[AVO].(Ю.Живов.П.Санаев).torrent без регистрации
Золото ЗОЛОТАЯ РАЗДАЧА! СКАЧАННОЕ НЕ ЗАСЧИТЫВАЕТСЯ! Золото
Дата: Зарегистрирован   [ Тип: внутренний ] Как тут cкачать?
MAGNET ссылка
MAGNET ссылка


Скачать .torrent

11 KB

Статус: проверено DHT
Скачан: торрент - 123 раз, раздача полностью - 7 раз
Размер: 2,13 GB
Оценка:  5 (Голосов: 1)
Поблагодарили: 1
Поделиться ссылкой на эту раздачу с друзьями:
В контактеFacebookОдноклассникиTwitterLivejournalМой МирLiveinternet
 

 
Показать сообщения:    


Вы не можете начинать темы
Вы не можете отвечать на сообщения
Вы не можете редактировать свои сообщения
Вы не можете удалять свои сообщения
Вы не можете голосовать в опросах
Вы не можете прикреплять файлы к сообщениям
Вы можете скачивать файлы