Loading...
Error

Скачать Уилфред / Wilfred (Сезон 2, серии 01-13 из 13) (Рэндолл Эйнхорн, Виктор Нелли мл.) [2012, Комедия, WEB-DLRip] [LostFilm] торрент без регистрации

 
Статистика раздачи
Размер:  3,44 GB   |    Скачан:  204 раза
Сидов:  1  [  0 KB/s  ]  
 
Автор Сообщение

leon030982

[] 

Уилфред / Wilfred
Год выпуска: 2012
Страна: США
Жанр: Комедия
Продолжительность: 00:22:00
Перевод: Профессиональный многоголосый закадровый (LostFilm)
Субтитры: Нет

Режиссёр: Рэндолл Эйнхорн, Виктор Нелли мл.

В ролях: Элайджа Вуд, Джейсон Гэнн, Фиона Габелманн, Дориан Браун, Эл Сапьенза, Рэйчел Стерлинг, Марк Энтони Лопез, Мэттью Каминский

Описание: Сюжет строится вокруг молодого человека по имени Райан, который ухаживает за девушкой — хозяйкой пса по кличке Уилфред. Пес и молодой человек не нравятся друг другу с первого взгляда. Дело осложняется тем, что вместо собаки Райан видит человека в собачьем костюме, который с ним разговаривает.


Сэмпл: http://multi-up.com/723558
Качество: WEB-DLRip
Формат: AVI
Видео кодек: XviD
Аудио кодек: MP3
Видео: MPEG4, XviD, 720x400 (16/9), 23.976 fps, 1 627 Kbps (0.236 bit/pixel)
Аудио: MP3, 48.0 KHz, 2 ch, 128 Kbps, CBR

General
Complete name : I:\ЗАКАЧКИ\Уилфред .S02 (LostFilm)\Wilfred.S02E01.rus.LostFilm.TV.avi
Format : AVI
Format/Info : Audio Video Interleave
File size : 269 MiB
Duration : 21mn 16s
Overall bit rate : 1 765 Kbps
Writing application : VirtualDubMod 1.5.10.3 | www.virtualdub-fr.org || (build 2550/release)
Writing library : VirtualDubMod build 2550/release
Video
ID : 0
Format : MPEG-4 Visual
Format profile : Simple@L3
Format settings, BVOP : 1
Format settings, QPel : No
Format settings, GMC : No warppoints
Format settings, Matrix : Default (H.263)
Codec ID : XVID
Codec ID/Hint : XviD
Duration : 21mn 16s
Bit rate : 1 627 Kbps
Width : 720 pixels
Height : 400 pixels
Display aspect ratio : 16:9
Frame rate : 23.976 fps
Color space : YUV
Chroma subsampling : 4:2:0
Bit depth : 8 bits
Scan type : Progressive
Compression mode : Lossy
Bits/(Pixel*Frame) : 0.236
Stream size : 248 MiB (92%)
Writing library : XviD 1.2.1 (UTC 2008-12-04)
Audio
ID : 1
Format : MPEG Audio
Format version : Version 1
Format profile : Layer 3
Mode : Joint stereo
Mode extension : MS Stereo
Codec ID : 55
Codec ID/Hint : MP3
Duration : 21mn 16s
Bit rate mode : Constant
Bit rate : 128 Kbps
Channel(s) : 2 channels
Sampling rate : 48.0 KHz
Compression mode : Lossy
Stream size : 19.5 MiB (7%)
Alignment : Aligned on interleaves
Interleave, duration : 42 ms (1.00 video frame)
Interleave, preload duration : 504 ms
Внимание! Раздача ведётся путём добавления новых серий; при каждом добавлении создаётся новый торрент. Чтобы начать докачку новой серии, пользователям необходимо сделать следующее:
(1) остановить скачивание,
(2) удалить старый торрент у себя из клиента (старые серии удалять не надо),
(3) скачать новый торрент и запустить его у себя в клиенте вместо старого, при этом указать клиенту путь в старую папку куда и должно происходить скачивание новых серий.
Ваш клиент при этом должен произвести хеширование (проверку) старой папки (если не производит сам - помогите ему сделать это), и будет докачивать только те серии которых у вас ещё нет. Старые серии при этом не удаляются, а продолжают раздаваться!
Eсли вы уже удалили старые серии, то предотвратить повторную закачку старых серий можно, отжав галочку в соответствующих местах при запуске нового торрента. По возможности, желательно не удалять старые серии как можно дольше чтобы релизёр не столько продолжал раздавать старые серии, а смог сконцентрироваться на новых.

Сезон завершен



Скачать Уилфред.Wilfred.(Сезон.2.серии.01-13.из.13).(Рэндолл.Эйнхорн.Виктор.Нелли.мл.).[2012.Комедия.WEB-DLRip].[LostFilm].torrent без регистрации
Золото ЗОЛОТАЯ РАЗДАЧА! СКАЧАННОЕ НЕ ЗАСЧИТЫВАЕТСЯ! Золото
Дата: Зарегистрирован   [ Тип: внутренний ] Как тут cкачать?
MAGNET ссылка
MAGNET ссылка


Скачать .torrent

19 KB

Статус: проверено DHT
Скачан: торрент - 204 раз, раздача полностью - 320 раз
Размер: 3,44 GB
Оценка:  5 (Голосов: 2)
Поблагодарили: 3
Поделиться ссылкой на эту раздачу с друзьями:
В контактеFacebookОдноклассникиTwitterLivejournalМой МирLiveinternet
 

 
Показать сообщения:    


Вы не можете начинать темы
Вы не можете отвечать на сообщения
Вы не можете редактировать свои сообщения
Вы не можете удалять свои сообщения
Вы не можете голосовать в опросах
Вы не можете прикреплять файлы к сообщениям
Вы можете скачивать файлы