Loading...
Error

/ Wilfred ( 1 ) ( , .) [2011, , WEB-DLRip] [ ]

 
2,86 GB   |    :  5506
1  [  0 KB/s  ]  
 

leon030982

[] 

/ Wilfred

: 2011
:
:
: 00:23:13
: (, ) ( )
:
: , .
: , , , , , , ,
: , . . , , .

SAMPLE
: WEB-DLRip
: AVI
: XviD
: MP3
: 656x368 (1.78:1), 23.976 fps, ~1200 kbps, 0.207 bit/pixel
RUS: 48 kHz, 2 ch, ~128 Kbps avg (CBR)
ENG: 48 kHz, 2 ch, ~128 Kbps avg (CBR)

:
:
: 5H1

:

General
Complete name : C:\Downloads\uTorrent\Wilfred S01 WEB-DLRip Kybik v Kybe\Wilfred.s01e01.WEB-DLRip.rus.eng.k3.avi
Format : AVI
Format/Info : Audio Video Interleave
File size : 244 MiB
Duration : 23mn 13s
Overall bit rate : 1 470 Kbps
Writing application : VirtualDubMod 1.5.10.3 | www.virtualdub-fr.org || (build 2550/release)
Writing library : VirtualDubMod build 2550/release
Video
ID : 0
Format : MPEG-4 Visual
Format profile : Advanced Simple@L5
Format settings, BVOP : 2
Format settings, QPel : No
Format settings, GMC : No warppoints
Format settings, Matrix : Custom
Codec ID : XVID
Codec ID/Hint : XviD
Duration : 23mn 13s
Bit rate : 1 200 Kbps
Width : 656 pixels
Height : 368 pixels
Display aspect ratio : 16:9
Frame rate : 23.976 fps
Color space : YUV
Chroma subsampling : 4:2:0
Bit depth : 8 bits
Scan type : Progressive
Compression mode : Lossy
Bits/(Pixel*Frame) : 0.207
Stream size : 199 MiB (82%)
Writing library : XviD 64
Audio #1
ID : 1
Format : MPEG Audio
Format version : Version 1
Format profile : Layer 3
Mode : Joint stereo
Mode extension : MS Stereo
Codec ID : 55
Codec ID/Hint : MP3
Duration : 23mn 13s
Bit rate mode : Constant
Bit rate : 128 Kbps
Channel(s) : 2 channels
Sampling rate : 48.0 KHz
Compression mode : Lossy
Stream size : 21.3 MiB (9%)
Alignment : Aligned on interleaves
Interleave, duration : 42 ms (1.00 video frame)
Interleave, preload duration : 504 ms
Audio #2
ID : 2
Format : MPEG Audio
Format version : Version 1
Format profile : Layer 3
Mode : Joint stereo
Mode extension : MS Stereo
Codec ID : 55
Codec ID/Hint : MP3
Duration : 23mn 13s
Bit rate mode : Constant
Bit rate : 128 Kbps
Channel(s) : 2 channels
Sampling rate : 48.0 KHz
Compression mode : Lossy
Stream size : 21.3 MiB (9%)
Alignment : Aligned on interleaves
Interleave, duration : 42 ms (1.00 video frame)
Interleave, preload duration : 504 ms



.Wilfred.(.1.).(.....).[2011..WEB-DLRip].[..].torrent
  ! ! 
:   [ : ] c?
MAGNET
MAGNET


.torrent

16 KB

: DHT
: - 5506 , - 583
: 2,86 GB
5 (: 3)
: 4
:
 FacebookTwitterLivejournal Liveinternet
 

 
: