Loading...
Error

Скачать Чертополох / Ironweed (Эктор Бабенко / Hector Babenco) [1987, драма, DVDRip] [MVO] + [AVO] (Михалёв) торрент без регистрации

 
Статистика раздачи
Размер:  1,47 GB   |    Скачан:  124 раза
Сидов:  1  [  0 KB/s  ]  
 
Автор Сообщение

leon030982

[] 

Чертополох / Ironweed
Страна: США
Жанр: драма
Год выпуска: 1987
Продолжительность: 02:23:11
Перевод: Профессиональный (многоголосый закадровый)
Перевод 2: Авторский (одноголосый закадровый) (Михалёв)
Cубтитры: английские
Оригинальная аудиодорожка: английский

Режиссер: Эктор Бабенко / Hector Babenco

В ролях: Джек Николсон (Jack Nicholson), Мерил Стрип (Meryl Streep), Кэррол Бейкер (Carroll Baker), Майкл О'Киф (Michael O'Keefe), Дайэн Венора (Diane Venora), Фред Гуинн (Fred Gwynne), Маргарет Уиттон (Margaret Whitton), Том Уэйтс (Tom Waits), Джейк Денджел (Jake Dengel), Нэтан Лейн (Nathan Lane), Джеймс Гэммон (James Gammon)

Описание: Экранизация одноименного романа Уильяма Кеннеди, получившего пулицеровскую премию. Фильм рассказывает о судьбе людей, отверженных обществом. Джек Филен (Николсон) когда-то был почтенным семьянином, мужем и отцом, но, пережив трагедию, ушел из дома и не появлялся там больше 20 лет. Он опустился на самое дно общества, пил, мерз, жил в ночлежках, видел страдания и смерть, потому что не мог простить себе смерти сына.


Сэмпл: http://multi-up.com/723905
Качество видео: DVDRip
Формат видео: AVI
Видео: XviD, 640x480, 4:3, 23.976 fps, 1 111 Kbps
Аудио: MP3, 48 kHz, 112 Kbps, 2 channels — Russian (MVO)
Аудио 2: MP3, 48 kHz, 112 Kbps, 2 channels — Russian (Алексей Михалёв)
Аудио 3: MP3, 48 kHz, 112 Kbps, 2 channels — English (original)
Формат субтитров: softsub (SRT)
Доп. информация о субтитрах: English
General
Complete name : I:\Ironweed.1987\Ironweed.1987.XviD.2Rus.Eng.DVDRip.avi
Format : AVI
Format/Info : Audio Video Interleave
File size : 1.47 GiB
Duration : 2h 23mn
Overall bit rate : 1 465 Kbps
Movie name : Ironweed (1987)
Director : Hector Babenco
Genre : Drama
Writing application : VirtualDubMod 1.5.10.3 | www.virtualdub-fr.org || (build 2550/release)
Writing library : VirtualDubMod build 2550/release
Video
ID : 0
Format : MPEG-4 Visual
Format profile : Advanced Simple@L5
Format settings, BVOP : 2
Format settings, QPel : No
Format settings, GMC : No warppoints
Format settings, Matrix : Custom
Codec ID : XVID
Codec ID/Hint : XviD
Duration : 2h 23mn
Bit rate : 1 111 Kbps
Width : 640 pixels
Height : 480 pixels
Display aspect ratio : 4:3
Frame rate : 23.976 fps
Color space : YUV
Chroma subsampling : 4:2:0
Bit depth : 8 bits
Scan type : Progressive
Compression mode : Lossy
Bits/(Pixel*Frame) : 0.151
Stream size : 1.11 GiB (76%)
Writing library : XviD 64
Audio #1
ID : 1
Format : MPEG Audio
Format version : Version 1
Format profile : Layer 3
Codec ID : 55
Codec ID/Hint : MP3
Duration : 2h 23mn
Bit rate mode : Constant
Bit rate : 112 Kbps
Channel(s) : 2 channels
Sampling rate : 48.0 KHz
Compression mode : Lossy
Stream size : 115 MiB (8%)
Alignment : Aligned on interleaves
Interleave, duration : 42 ms (1.00 video frame)
Interleave, preload duration : 504 ms
Language : Russian
Audio #2
ID : 2
Format : MPEG Audio
Format version : Version 1
Format profile : Layer 3
Codec ID : 55
Codec ID/Hint : MP3
Duration : 2h 23mn
Bit rate mode : Constant
Bit rate : 112 Kbps
Channel(s) : 2 channels
Sampling rate : 48.0 KHz
Compression mode : Lossy
Stream size : 115 MiB (8%)
Alignment : Aligned on interleaves
Interleave, duration : 42 ms (1.00 video frame)
Interleave, preload duration : 504 ms
Language : Russian
Audio #3
ID : 3
Format : MPEG Audio
Format version : Version 1
Format profile : Layer 3
Codec ID : 55
Codec ID/Hint : MP3
Duration : 2h 23mn
Bit rate mode : Constant
Bit rate : 112 Kbps
Channel(s) : 2 channels
Sampling rate : 48.0 KHz
Compression mode : Lossy
Stream size : 115 MiB (8%)
Alignment : Aligned on interleaves
Interleave, duration : 42 ms (1.00 video frame)
Interleave, preload duration : 504 ms
Language : English



Скачать Чертополох.Ironweed.(Эктор.Бабенко.Hector.Babenco).[1987.драма.DVDRip].[MVO].+.[AVO].(Михалёв).torrent без регистрации
Золото ЗОЛОТАЯ РАЗДАЧА! СКАЧАННОЕ НЕ ЗАСЧИТЫВАЕТСЯ! Золото
Дата: Зарегистрирован   [ Тип: внутренний ] Как тут cкачать?
MAGNET ссылка
MAGNET ссылка


Скачать .torrent

15 KB

Статус: проверено DHT
Скачан: торрент - 124 раз, раздача полностью - 37 раз
Размер: 1,47 GB
Оценка:  5 (Голосов: 1)
Поблагодарили: 1
Поделиться ссылкой на эту раздачу с друзьями:
В контактеFacebookОдноклассникиTwitterLivejournalМой МирLiveinternet
 

 
Показать сообщения:    


Вы не можете начинать темы
Вы не можете отвечать на сообщения
Вы не можете редактировать свои сообщения
Вы не можете удалять свои сообщения
Вы не можете голосовать в опросах
Вы не можете прикреплять файлы к сообщениям
Вы можете скачивать файлы