Loading...
Error

Скачать Каникулы / Vacation / National Lampoon's Vacation (Харольд Рэмис / Harold Ramis) [1983, Комедия, мелодрама, приключения, HDRip] [MVO] торрент без регистрации

 
Статистика раздачи
Размер:  702 MB   |    Скачан:  137 раз
Сидов:  1  [  0 KB/s  ]  
 
Автор Сообщение

leon030982

[] 

Каникулы / Vacation / National Lampoon's Vacation
Страна: США
Жанр: Комедия, мелодрама, приключения
Год выпуска: 1983
Продолжительность: 01:38:18
Перевод: Профессиональный (многоголосый закадровый)
Cубтитры: нет

Режиссер: Харольд Рэмис / Harold Ramis

В ролях: Чеви Чейз, Беверли д'Анджело, Имоджин Кока, Рэнди Куэйд, Энтони Майкл Холл, Дана Бэррон, Эдди Брэкен, Брайан Дойл-Мюррей, Мириам Флинн, Джеймс Кич, Юджин Леви, Фрэнк Макрэй, Джон Кэнди, Джейн Краковски, Джон Диль

Описание: Итак! Всё решено и спланировано. Уже собраны и запакованы вещи. И, кажется,- ничто не сможет помешать вкусить прелести заслуженного отпуска. Не тут то было! Когда семейство Грисвольдов в полном составе собралось на каникулы, начался настоящий цирк! Руководитель «мероприятия», глава семьи Кларк Грисвольд, страстно жаждет умиротворённого единения семьи во время путешествия через всю страну, обещающего быть весьма захватывающим! Но сладким мечтам папаши Грисвольда не суждено сбыться: каникулы превращаются в поездку на американских горках в 2 460 миль в длину! Каждый вносит свою «лепту» в «разнообразие» культурной программы отдыха — и дядя Эдди, и тётя Эдна, и соблазнительница в «Феррари» и, конечно, тучный охранник!

Сэмпл: http://multi-up.com/325719
Качество видео: HDRip [рип с BDRip 720p]
Формат видео: AVI
Видео: XviD, 862 Kbps, 688 х 384 pixels, 23.976 fps
Аудио: MP3, 128 Kbps, 2 channels, 48.0 KHz
General
Complete name : E:\Рабочая папка\Kanikuly.1983.HDRip.700mb.avi
Format : AVI
Format/Info : Audio Video Interleave
File size : 702 MiB
Duration : 1h 38mn
Overall bit rate : 999 Kbps
Writing application : VirtualDubMod 1.5.10.2 (build 2540/release)
Writing library : VirtualDubMod build 2540/release
Video
ID : 0
Format : MPEG-4 Visual
Format profile : Advanced Simple@L5
Format settings, BVOP : Yes
Format settings, QPel : No
Format settings, GMC : No warppoints
Format settings, Matrix : Default (H.263)
Codec ID : XVID
Codec ID/Hint : XviD
Duration : 1h 38mn
Bit rate : 862 Kbps
Width : 688 pixels
Height : 384 pixels
Display aspect ratio : 16:9
Frame rate : 23.976 fps
Color space : YUV
Chroma subsampling : 4:2:0
Bit depth : 8 bits
Scan type : Progressive
Bits/(Pixel*Frame) : 0.136
Stream size : 606 MiB (86%)
Writing library : XviD 1.2.1 (UTC 2008-12-04)
Audio
ID : 1
Format : MPEG Audio
Format version : Version 1
Format profile : Layer 3
Codec ID : 55
Codec ID/Hint : MP3
Duration : 1h 38mn
Bit rate mode : Constant
Bit rate : 128 Kbps
Channel(s) : 2 channels
Sampling rate : 48.0 KHz
Stream size : 90.0 MiB (13%)
Alignment : Aligned on interleaves
Interleave, duration : 42 ms (1.00 video frame)
Interleave, preload duration : 504 ms
Writing library : LAME3.98r



Скачать Каникулы.Vacation.National.Lampoon's.Vacation.(Харольд.Рэмис.Harold.Ramis).[1983.Комедия.мелодрама.приключения.HDRip].[MVO].torrent без регистрации
Золото ЗОЛОТАЯ РАЗДАЧА! СКАЧАННОЕ НЕ ЗАСЧИТЫВАЕТСЯ! Золото
Дата: Зарегистрирован   [ Тип: внутренний ] Как тут cкачать?
MAGNET ссылка
MAGNET ссылка


Скачать .torrent

14 KB

Статус: проверено DHT
Скачан: торрент - 137 раз, раздача полностью - 24 раз
Размер: 702 MB
Оценка:  - (Голосов: 0)
Поблагодарили: 0
Поделиться ссылкой на эту раздачу с друзьями:
В контактеFacebookОдноклассникиTwitterLivejournalМой МирLiveinternet
 

 
Показать сообщения:    


Вы не можете начинать темы
Вы не можете отвечать на сообщения
Вы не можете редактировать свои сообщения
Вы не можете удалять свои сообщения
Вы не можете голосовать в опросах
Вы не можете прикреплять файлы к сообщениям
Вы можете скачивать файлы