Loading...
Error

Скачать Не пойман - не вор / Inside Man (Спайк Ли) [2006, триллер, драма, криминал, BDRip-AVC] [Dub] торрент без регистрации

 
Статистика раздачи
Размер:  1,45 GB   |    Скачан:  176 раз
Сидов:  1  [  0 KB/s  ]  
 
Автор Сообщение

Marsianka

[] 


Не пойман - не вор / Inside Man (2006) BDRip-AVC


Страна: США
Жанр: триллер, драма, криминал
Год выпуска: 2006
Продолжительность: 02:08:36

Перевод: Профессиональный (дублированный)
Cубтитры: нет
Режиссер: Спайк Ли / Spike Lee

В ролях: Дензел Вашингтон, Клайв Оуэн, Джоди Фостер, Кристофер Пламмер, Уиллем Дефо, Чиветел Эджиофор, Карлос Андрес Гомес, Ким Директор, Джеймс Рэнсон, Берни Рейчел

Описание: История крутого полицейского, детектива Фрезьера, который сталкивается «на узкой дорожке» с хитрым грабителем банков Долтоном. Их противостояние выливается в напряженную драму с захватом заложников. По мере того, как развивается эта игра в «кошки-мышки», на горизонте появляется еще одна загадочная фигура брокер Мадалина, роль которой в разворачивающихся событиях остается до поры до времени совершенно непонятной. Мадалина вносит еще больше хаоса и нестабильности в и без того чрезвычайно хрупкую ситуацию



Качество видео: BDRip-AVC(Исх. BDRemux)
Формат видео: MKV

Видео: 1024x432 (2.35:1), 23.976 fps, AVC, ~1170 kbps, 0.110 bits/pixel
Аудио: 48.0 KHz, AC3, 6 ch, 448 kbps

General
Complete name : L:Ne poyman, ne vor.chopper887.mkv
Format : Matroska
File size : 1.45 GiB
Duration : 2h 8mn
Overall bit rate : 1 617 Kbps
Movie name : Ne poyman, ne vor.chopper887
Encoded date : UTC 2011-06-06 15:56:09
Writing application : mkvmerge v4.4.0 ('Die Wiederkehr') built on Nov 7 2010 22:17:07
Writing library : libebml v1.0.0 + libmatroska v1.0.0

Video
ID : 1
Format : AVC
Format/Info : Advanced Video Codec
Format profile : High@L4.1
Format settings, CABAC : Yes
Format settings, ReFrames : 10 frames
Muxing mode : Container profile=Unknown@4.1
Codec ID : V_MPEG4/ISO/AVC
Duration : 2h 8mn
Bit rate : 1 137 Kbps
Nominal bit rate : 1 170 Kbps
Width : 1 024 pixels
Height : 432 pixels
Display aspect ratio : 2.35:1
Frame rate : 23.976 fps
Resolution : 24 bits
Colorimetry : 4:2:0
Scan type : Progressive
Bits/(Pixel*Frame) : 0.107
Stream size : 1.02 GiB (70%)
Title : Ne poyman, ne vor.chopper887
Writing library : x264 core 114 r1924 08d04a4
Encoding settings : cabac=1 / ref=10 / deblock=1:-2:-1 / analyse=0x3:0x133 / me=umh / subme=9 / psy=1 / psy_rd=1.00:0.10 / mixed_ref=1 / me_range=32 / chroma_me=1 / trellis=2 / 8x8dct=1 / cqm=0 / deadzone=21,11 / fast_pskip=0 / chroma_qp_offset=-3 / threads=3 / sliced_threads=0 / nr=0 / decimate=1 / interlaced=0 / constrained_intra=0 / bframes=10 / b_pyramid=2 / b_adapt=2 / b_bias=0 / direct=3 / weightb=1 / open_gop=0 / weightp=2 / keyint=250 / keyint_min=23 / scenecut=40 / intra_refresh=0 / rc_lookahead=80 / rc=2pass / mbtree=1 / bitrate=1170 / ratetol=1.0 / qcomp=0.70 / qpmin=0 / qpmax=69 / qpstep=4 / cplxblur=20.0 / qblur=0.5 / ip_ratio=1.40 / aq=1:1.00

Audio
ID : 2
Format : AC-3
Format/Info : Audio Coding 3
Codec ID : A_AC3
Duration : 2h 8mn
Bit rate mode : Constant
Bit rate : 448 Kbps
Channel(s) : 6 channels
Channel positions : Front: L C R, Surround: L R, LFE
Sampling rate : 48.0 KHz
Stream size : 413 MiB (28%)
Title : Дубляж



Скачать Не.пойман.-.не.вор.Inside.Man.(Спайк.Ли).[2006.триллер.драма.криминал.BDRip-AVC].[Dub].torrent без регистрации
Золото ЗОЛОТАЯ РАЗДАЧА! СКАЧАННОЕ НЕ ЗАСЧИТЫВАЕТСЯ! Золото
Дата: Зарегистрирован   [ Тип: внутренний ] Как тут cкачать?
MAGNET ссылка
MAGNET ссылка


Скачать .torrent

15 KB

Статус: проверено DHT
Скачан: торрент - 176 раз, раздача полностью - 133 раз
Размер: 1,45 GB
Оценка:  5 (Голосов: 1)
Поблагодарили: 4
Поделиться ссылкой на эту раздачу с друзьями:
В контактеFacebookОдноклассникиTwitterLivejournalМой МирLiveinternet
 

 
Показать сообщения:    


Вы не можете начинать темы
Вы не можете отвечать на сообщения
Вы не можете редактировать свои сообщения
Вы не можете удалять свои сообщения
Вы не можете голосовать в опросах
Вы не можете прикреплять файлы к сообщениям
Вы можете скачивать файлы