Loading...
Error

Скачать Ливень / Hard Rain (Микаэл Саломон / Mikael Salomon) [1998, боевик, триллер, драма, криминал, BDRip-AVC] [DUB] + [AVO] + [original] + [Sub] (rus,eng) торрент без регистрации

 
Статистика раздачи
Размер:  3,27 GB   |    Скачан:  120 раз

Полного источника не было: 21 минута

 
Автор Сообщение

leon030982

[] 

Ливень / Hard Rain

Год выпуска: 1998
Страна: США, Германия, Дания, Франция, Япония, Великобритания, Новая Зеландия
Жанр: Боевик, триллер, драма, криминал
Продолжительность: 01:36:34
Перевод: Дублированный (Союз-видео) + Авторский (одноголосый) А.Гаврилов
Оригинальная аудиодорожка: Английский
Субтитры: Русские, английские
Режиссер: Микаэл Саломон / Mikael Salomon

В ролях: Морган Фримен, Кристиан Слэйтер, Рэнди Куэйд, Минни Драйвер, Эдвард Эснер,
Майкл А. Гурджиан, Дэнн Флорек, Рики Харрис, Марк Ролстон, Питер Мёрник, и др.

Описание: Вышедшая из берегов река становится причиной крупного наводнения в провинциальном
американском городке. Мимо города следует инкассаторский автомобиль, перевозящий несколько
миллионов долларов. Попав в засаду, неопытный охранник Том оказывается один на один с бандой
«беспощадного Джима» и бушующей природной стихией. Выжить невозможно...


Качество: BDRip-AVC (Blu-Ray 1080p)
Формат: MKV
Видео кодек: H.264
Аудио кодек: AC3
Видео: AVC; x264; 1024х430 (2.35:1), 23,976 кадр/сек, ~3405 кбит/сек, 0.323 bit/pixel
Аудио 1: Rus; AC3; 48,0 КГц; 448 Кбит/сек; 6ch (Front: L C R, Side: L R, LFE) Дубляж
Аудио 2: Rus; AC3; 48,0 КГц; 448 Кбит/сек; 6ch (Front: L C R, Side: L R, LFE) Гаврилов
Аудио 3: Eng; AC3; 48,0 КГц; 448 Кбит/сек; 6ch (Front: L C R, Side: L R, LFE) Оригинал
Рейтинг R - Детям до 17 лет обязательно присутствие родителей

Рейтинг R получают фильмы, в содержании которых обязательно содержится материал,
предназначенный только для взрослой аудитории. Родителям рекомендуется хорошо подумать,
прежде чем посмотреть такой фильм вместе со своими детьми.
Фильм, получивший рейтинг R, скорее всего содержит сексуальные сцены,
эпизоды с употреблением наркотиков, нецензурную брань, фрагменты с насилием и т.д.
Интересно:
- На ранней стадии производства режиссером был назначен Джон Ву.
- Первоначально фильм был назван «Наводнение» (The Flood), но создатели изменили его,
так как не хотели, чтобы зрители решили, что это просто фильм-катастрофа.
Режиссер дубляжа:
Ярослава Турылёва
Роли дублировали:
Рогволд Суховерко (Jim)
Александр Рахленко (Tom)
Александр Новиков (Sheriff Mike Collins)
Любовь Германова (Karen)
Юрий Саранцев (Uncle Charlie)
Вадим Курков (Kenny)
Юрий Маляров (Mr. Mehlor)
Виктор Незнанов (Ray)
Виктор Петров (Wayne Bryce)
Петр Фёдоров (Phil)
Дальвин Щербаков (Hank)
Ян Янакиев (Henry Sears)
Ирина Губанова (Doreen Sears)
Александр Воеводин (Mayor)
Rip by DenisNN
C:\Hard.Rain.1998.x264.BDRip.AVC.mkv
General
Complete name : C:\Hard.Rain.1998.x264.BDRip.AVC.mkv
Format : Matroska
File size : 3.27 GiB
Duration : 1h 36mn
Overall bit rate : 4 846 Kbps
Encoded date : UTC 2011-12-12 22:12:11
Writing application : mkvmerge v4.6.0 ('Still Crazy After All These Years') сборка от Apr 1 2011 21:01:49
Writing library : libebml v1.2.0 + libmatroska v1.1.0
Video #1
ID : 1
Format : AVC
Format/Info : Advanced Video Codec
Format profile : High@L4.1
Format settings, CABAC : Yes
Format settings, ReFrames : 8 frames
Muxing mode : Container profile=Unknown@4.1
Codec ID : V_MPEG4/ISO/AVC
Duration : 1h 36mn
Bit rate : 3 405 Kbps
Nominal bit rate : 3 500 Kbps
Width : 1 024 pixels
Height : 430 pixels
Display aspect ratio : 2.35:1
Frame rate : 23.976 fps
Resolution : 8 bits
Colorimetry : 4:2:0
Scan type : Progressive
Bits/(Pixel*Frame) : 0.323
Stream size : 2.29 GiB (70%)
Title : Liven? / Hard Rain
Writing library : x264 core 114 r1924 08d04a4
Encoding settings : cabac=1 / ref=8 / deblock=1:-1:-1 / analyse=0x3:0x133 / me=umh / subme=9 / psy=1 / psy_rd=1.00:0.20 / mixed_ref=1 / me_range=48 / chroma_me=1 / trellis=2 / 8x8dct=1 / cqm=0 / deadzone=21,11 / fast_pskip=0 / chroma_qp_offset=-3 / threads=3 / sliced_threads=0 / nr=0 / decimate=1 / interlaced=0 / constrained_intra=0 / bframes=5 / b_pyramid=2 / b_adapt=2 / b_bias=0 / direct=3 / weightb=1 / open_gop=0 / weightp=2 / keyint=240 / keyint_min=23 / scenecut=40 / intra_refresh=0 / rc_lookahead=100 / rc=2pass / mbtree=1 / bitrate=3500 / ratetol=1.0 / qcomp=0.60 / qpmin=10 / qpmax=51 / qpstep=4 / cplxblur=20.0 / qblur=0.5 / ip_ratio=1.40 / aq=1:1.10
Audio #2
ID : 2
Format : AC-3
Format/Info : Audio Coding 3
Codec ID : A_AC3
Duration : 1h 36mn
Bit rate mode : Constant
Bit rate : 448 Kbps
Channel(s) : 6 channels
Channel positions : Front: L C R, Surround: L R, LFE
Sampling rate : 48.0 KHz
Stream size : 309 MiB (9%)
Title : Dublyazh
Language : Russian
Audio #3
ID : 3
Format : AC-3
Format/Info : Audio Coding 3
Codec ID : A_AC3
Duration : 1h 36mn
Bit rate mode : Constant
Bit rate : 448 Kbps
Channel(s) : 6 channels
Channel positions : Front: L C R, Surround: L R, LFE
Sampling rate : 48.0 KHz
Stream size : 309 MiB (9%)
Title : Gavrilov
Language : Russian
Audio #4
ID : 4
Format : AC-3
Format/Info : Audio Coding 3
Codec ID : A_AC3
Duration : 1h 36mn
Bit rate mode : Constant
Bit rate : 448 Kbps
Channel(s) : 6 channels
Channel positions : Front: L C R, Surround: L R, LFE
Sampling rate : 48.0 KHz
Stream size : 309 MiB (9%)
Title : Original
Text #5
ID : 5
Format : UTF-8
Codec ID : S_TEXT/UTF8
Codec ID/Info : UTF-8 Plain Text
Title : Russkie
Language : Russian
Text #6
ID : 6
Format : UTF-8
Codec ID : S_TEXT/UTF8
Codec ID/Info : UTF-8 Plain Text
Title : Angliiskie



Скачать Ливень.Hard.Rain.(Микаэл.Саломон.Mikael.Salomon).[1998.боевик.триллер.драма.криминал.BDRip-AVC].[DUB].+.[AVO].+.[original].+.[Sub].(rus.eng).torrent без регистрации
Золото ЗОЛОТАЯ РАЗДАЧА! СКАЧАННОЕ НЕ ЗАСЧИТЫВАЕТСЯ! Золото
Дата: Зарегистрирован   [ Тип: внутренний ] Как тут cкачать?
MAGNET ссылка
MAGNET ссылка


Скачать .torrent

17 KB

Статус: проверено DHT
Скачан: торрент - 120 раз, раздача полностью - 3 раз
Размер: 3,27 GB
Оценка:  - (Голосов: 0)
Поблагодарили: 2
Поделиться ссылкой на эту раздачу с друзьями:
В контактеFacebookОдноклассникиTwitterLivejournalМой МирLiveinternet
 

 
Показать сообщения:    


Вы не можете начинать темы
Вы не можете отвечать на сообщения
Вы не можете редактировать свои сообщения
Вы не можете удалять свои сообщения
Вы не можете голосовать в опросах
Вы не можете прикреплять файлы к сообщениям
Вы можете скачивать файлы