Loading...
Error

Скачать Торренте, глупая рука закона / Torrente, el brazo tonto de la ley (Сантьяго Сегура) [1998, комедия, криминал, DVDRip] [DVO] торрент без регистрации

 
Статистика раздачи
Размер:  697 MB   |    Скачан:  129 раз
Сидов:  1  [  0 KB/s  ]  
 
Автор Сообщение

Marsianka

[] 

Страна: Испания
Жанр: комедия, криминал
Год выпуска: 1998
Продолжительность: 01:33:57

Перевод: Любительский (двухголосый закадровый) (ViruseProject)
Cубтитры: нет
Режиссер: Сантьяго Сегура / Santiago Segura

В ролях: Сантьяго Сегура, Хавьер Камара, Ноис Асенси, Чус Лампреаве, Тони Лебланк, Julio Sanju‘n, Джимми Барнатан, Дарио Пасо, Карлос Переа, Мануэль Манкуинья и др.

Описание: Первая часть похождений любимого неадекватного народного Испанского героя и циничного подонка в одном лице. Как обычно, много простого и понятного не всем юмора ниже пояса, много шуток про медийных персонажей, которые сами охотно снимаются в эпизодах...



Релиз: совместно с

Озвучка: Агент Смит и Lalusha
Перевод: Юсупов Вадим
Сабы на озвучку предоставил: Eldak-10
Сведение звука: viruse

ТРЕЙЛЕР

СЕМПЛ

Качество видео: DVDRip
Формат видео: AVI

Видео: 576x312 (1.85:1), 25 fps, DivX Codec 5.02 build 481 ~898 kbps avg, 0.20 bit/pixel
Аудио: 48 kHz, MPEG Layer 3, 2 ch, ~128.00 kbps avg

D:ОЗВУЧКАГОТОВОЕТОРРЕНТЕ 1Torrente_1_ViruseProject.avi
General
Complete name : D:ОЗВУЧКАГОТОВОЕТОРРЕНТЕ 1Torrente_1_ViruseProject.avi
Format : AVI
Format/Info : Audio Video Interleave
File size : 697 MiB
Duration : 1h 33mn
Overall bit rate : 1 036 Kbps
Writing application : VirtualDubMod 1.5.10.2 (build 2540/release)
Writing library : VirtualDubMod build 2540/release
Video #0
ID : 0
Format : MPEG-4 Visual
Format settings, BVOP : 1
Format settings, QPel : No
Format settings, GMC : 2 warppoints
Format settings, Matrix : Default (H.263)
Muxing mode : Packed bitstream
Codec ID : DX50
Codec ID/Hint : DivX 5
Duration : 1h 33mn
Bit rate : 899 Kbps
Width : 576 pixels
Height : 312 pixels
Display aspect ratio : 16:9
Frame rate : 25.000 fps
Color space : YUV
Chroma subsampling : 4:2:0
Bit depth : 8 bits
Scan type : Progressive
Compression mode : Lossy
Bits/(Pixel*Frame) : 0.200
Stream size : 604 MiB (87%)
Writing library : DivX 5.0.2 (UTC 2002-05-16)
Audio #1
ID : 1
Format : MPEG Audio
Format version : Version 1
Format profile : Layer 3
Codec ID : 55
Codec ID/Hint : MP3
Duration : 1h 33mn
Bit rate mode : Constant
Bit rate : 128 Kbps
Channel(s) : 2 channels
Sampling rate : 48.0 KHz
Compression mode : Lossy
Stream size : 86.0 MiB (12%)
Alignment : Aligned on interleaves
Interleave, duration : 40 ms (1.00 video frame)
Interleave, preload duration : 504 ms



Скачать Торренте.глупая.рука.закона.Torrente.el.brazo.tonto.de.la.ley.(Сантьяго.Сегура).[1998.комедия.криминал.DVDRip].[DVO].torrent без регистрации
Золото ЗОЛОТАЯ РАЗДАЧА! СКАЧАННОЕ НЕ ЗАСЧИТЫВАЕТСЯ! Золото
Дата: Зарегистрирован   [ Тип: внутренний ] Как тут cкачать?
MAGNET ссылка
MAGNET ссылка


Скачать .torrent

14 KB

Статус: проверено DHT
Скачан: торрент - 129 раз, раздача полностью - 38 раз
Размер: 697 MB
Оценка:  1 (Голосов: 1)
Поблагодарили: 1
Поделиться ссылкой на эту раздачу с друзьями:
В контактеFacebookОдноклассникиTwitterLivejournalМой МирLiveinternet
 

 
Показать сообщения:    


Вы не можете начинать темы
Вы не можете отвечать на сообщения
Вы не можете редактировать свои сообщения
Вы не можете удалять свои сообщения
Вы не можете голосовать в опросах
Вы не можете прикреплять файлы к сообщениям
Вы можете скачивать файлы