Loading...
Error

Скачать Континуум / Continuum (Полный 1-ый сезон) (Пэт Уильямс, Джон Кассар) [2012 г., фантастика, триллер, драма, WEB-DLRip] [DVO] (NewStudio DD 5.1) + (Original DD 5.1) + [Subs] торрент без регистрации

 
Статистика раздачи
Размер:  8,58 GB   |    Скачан:  5387 раз
Сидов:  1  [  0 KB/s  ]  
 
Автор Сообщение

leon030982

[] 



Континуум / Continuum


Год выпуска: 2012
Страна: США, Канада | Showcase
Жанр: фантастика, триллер, драма
Продолжительность: ~ 42 минуты
Перевод: Профессиональный (двухголосый, закадровый) - NewStudio
Субтитры: Русские, Английские
Режиссёры: Пэт Уильямс, Джон Кассар
В ролях: Рэйчел Николс, Виктор Уэбстер, Эрик Кнудсен, Стефен Лобо, Ричард Хэрмон, Брайан Маркинсон, Дженнифер Спенс, Джон Генри Рирдон, Роджер Р. Кросс, Лекса Дойг и др.
Описание: Когда в 2077 году группа терористов-фанатиков сбегает с казни, они переносятся в 2012 год, случайно захватив с собой стража Управления общественной безопасности Киру Кэмерон. Когда она понимает, что застряла в прошлом и не может вернуться к мужу и сыну, Кира направляет свою энергию на попытки устранить террористическую группу, пока они не повергли в хаос наше настоящее.
Качество: WEB-DLRip
Формат: AVI
Видео кодек: XviD
Аудио кодек: AC3
Видео: 720x400 (16:9), 23.976 fps, ~2000 kbps, ~0.290 bit/pixel
Аудио Rus: 48 kHz, 6 ch, ~384 kbps |NewStudio|
Аудио Eng: 48 kHz, 6 ch, ~384 kbps |Original|
Озвучка: Ирина Воронова, Константин Погодаев
Перевод: Олег Папулов (Jeketeur)
Работа со звуком: Koss, Baggio
Постер: Vortex
Рип: ЛП
/ Сэмпл ImDB / Кинопоиск
A Stitch in Time / Нужное время и нужное место
Fast Times / Время летит быстро
Wasting Time / Трата времени
Matter of Time / Вопрос Времени
[b]Общее
Полное имя : F:\Continuum.s01.rus.eng.NewStudio\Continuum.s01e01.rus.eng.NewStudio.avi
Формат : AVI
Формат/Информация : Audio Video Interleave
Размер файла : 877 Мбайт
Продолжительность : 44 м.
Общий поток : 2782 Кбит/сек
Программа кодирования : VirtualDubMod 1.5.10.2 (build 2540/release)
Библиотека кодирования : VirtualDubMod build 2540/release
Видео
Идентификатор : 0
Формат : MPEG-4 Visual
Профиль формата : Advanced Simple@L5
Параметр BVOP формата : 1
Параметр QPel формата : Нет
Параметр GMC формата : Без точки перехода
Параметр матрицы формата : Default (MPEG)
Идентификатор кодека : XVID
Идентификатор кодека/Подсказка : XviD
Продолжительность : 44 м.
Битрейт : 2000 Кбит/сек
Ширина : 720 пикселей
Высота : 400 пикселей
Соотношение сторон : 16:9
Частота кадров : 23,976 кадра/сек
Цветовое пространство : YUV
Субдискретизация насыщенности : 4:2:0
Битовая глубина : 8 бит
Тип развёртки : Прогрессивная
Метод сжатия : С потерями
Бит/(Пиксели*Кадры) : 0.290
Размер потока : 630 Мбайт (72%)
Библиотека кодирования : XviD 65
Аудио #1
Идентификатор : 1
Формат : AC-3
Формат/Информация : Audio Coding 3
Расширение режима : CM (complete main)
Параметр Endianness формата : Big
Идентификатор кодека : 2000
Продолжительность : 44 м.
Вид битрейта : Постоянный
Битрейт : 384 Кбит/сек
Каналы : 6 каналов
Расположение каналов : Front: L C R, Side: L R, LFE
Частота : 48,0 КГц
Битовая глубина : 16 бит
Метод сжатия : С потерями
Размер потока : 121 Мбайт (14%)
Выравнивание : Разделение по промежуткам
Продолжительность промежутка : 42 мс. (1,00 видеокадр)
Время предзагрузки промежутка : 500 мс.
Аудио #2
Идентификатор : 2
Формат : AC-3
Формат/Информация : Audio Coding 3
Расширение режима : CM (complete main)
Параметр Endianness формата : Big
Идентификатор кодека : 2000
Продолжительность : 44 м.
Вид битрейта : Постоянный
Битрейт : 384 Кбит/сек
Каналы : 6 каналов
Расположение каналов : Front: L C R, Side: L R, LFE
Частота : 48,0 КГц
Битовая глубина : 16 бит
Метод сжатия : С потерями
Размер потока : 121 Мбайт (14%)
Выравнивание : Разделение по промежуткам
Продолжительность промежутка : 42 мс. (1,00 видеокадр)
Время предзагрузки промежутка : 500 мс.
Внимание! Раздача ведётся путём добавления новых серий; при каждом добавлении создётся новый торрент. Чтобы начать докачку новой серии, пользователям необходимо сделать следующее:Остановить скачивание.
Удалить старый торрент у себя из клиента (старые серии удалять не надо).
Скачать новый торрент и запустить его у себя в клиенте вместо старого, при этом указать клиенту путь в старую папку куда и должно происходить скачивание новых серий.Ваш клиент при этом должен произвести хеширование (проверку) старой папки (если не производит сам - помогите ему сделать это), и будет докачивать только те серии которых у вас ещё нет. Старые серии при этом не удаляются, а продолжают раздаваться!
Eсли вы уже удалили старые серии, то предотвратить повторную закачку старых серий можно, отжав галочку в соответсвующих местах при запуске нового торрента. По возможности, желательно не удалять старые серии как можно дольше чтобы релизёр не столько продолжал раздавать старые серии, а смог сконцентрироваться на новых.
[align=center] [/font]



Скачать Континуум.Continuum.(Полный.1-ый.сезон).(Пэт.Уильямс.Джон.Кассар).[2012.г.фантастика.триллер.драма.WEB-DLRip].[DVO].(NewStudio.DD.5.1).+.(Original.DD.5.1).+.[Subs].torrent без регистрации
Золото ЗОЛОТАЯ РАЗДАЧА! СКАЧАННОЕ НЕ ЗАСЧИТЫВАЕТСЯ! Золото
Дата: Зарегистрирован   [ Тип: внутренний ] Как тут cкачать?
MAGNET ссылка
MAGNET ссылка


Скачать .torrent

46 KB

Статус: проверено DHT
Скачан: торрент - 5387 раз, раздача полностью - 6 раз
Размер: 8,58 GB
Оценка:  5 (Голосов: 1)
Поблагодарили: 0
Поделиться ссылкой на эту раздачу с друзьями:
В контактеFacebookОдноклассникиTwitterLivejournalМой МирLiveinternet
 

 
Показать сообщения:    


Вы не можете начинать темы
Вы не можете отвечать на сообщения
Вы не можете редактировать свои сообщения
Вы не можете удалять свои сообщения
Вы не можете голосовать в опросах
Вы не можете прикреплять файлы к сообщениям
Вы можете скачивать файлы