Loading...
Error

Скачать О, боже! / Oh, God! (Карл Райнер / Carl Reiner) [1977, комедия, DVDRip] [Dub] ("Варус Видео") торрент без регистрации

 
Статистика раздачи
Размер:  1,45 GB   |    Скачан:  133 раза
Сидов:  1  [  0 KB/s  ]  
 
Автор Сообщение

leon030982

[] 

О, боже! / Oh, God!
Страна: США
Жанр: комедия
Год выпуска: 1977
Продолжительность: 01:37:50
Перевод: Профессиональный (полное дублирование)
Cубтитры: нет

Режиссер: Карл Райнер

В ролях: Джордж Бернс, Джон Денвер, Тери Гарр, Доналд Плезенс, Ральф Беллами, Уильям Дэниэлс, Барнард Хьюз и др.

Описание:
Комедия, где сам Всевышний спустился на Землю, чтобы пообщаться с нами, а заодно уладить кое-какие дела. Первый, к кому он обратился, был средний-средний американец, зато симпатяга. Сразу как знакомство состоялось, в жизни этого американца, да и не только его, стали происходить удивительные вещи.
Качество: DVDRip
Формат: AVI
Видео кодек: XviD
Аудио кодек: AC3
Видео: XviD, 704x400, 16:9, 23.976 fps, 1924 kbps
Аудио: Dolby AC3; Rus; 48000Hz; 2ch; 192kbps [полное дублирование] Варус Видео, VHSRip
За спасибо (СЭМПЛ)
За дубляж "Варус Видео" большое спасибо Fikaloid.
General
Complete name : H:\Кино\Oh,God!1977.DVDRip.Dub.avi
Format : AVI
Format/Info : Audio Video Interleave
File size : 1.45 GiB
Duration : 1h 37mn
Overall bit rate : 2 126 Kbps
Writing application : VirtualDubMod 1.5.10.2 (build 2540/release)
Writing library : VirtualDubMod build 2540/release
Video
ID : 0
Format : MPEG-4 Visual
Format profile : Advanced Simple@L5
Format settings, BVOP : 1
Format settings, QPel : No
Format settings, GMC : No warppoints
Format settings, Matrix : Custom
Codec ID : XVID
Codec ID/Hint : XviD
Duration : 1h 37mn
Bit rate : 1 924 Kbps
Width : 704 pixels
Height : 400 pixels
Display aspect ratio : 16:9
Frame rate : 23.976 fps
Color space : YUV
Chroma subsampling : 4:2:0
Bit depth : 8 bits
Scan type : Progressive
Compression mode : Lossy
Bits/(Pixel*Frame) : 0.285
Stream size : 1.31 GiB (91%)
Writing library : XviD 1.2.1 (UTC 2008-12-04)
Audio
ID : 1
Format : AC-3
Format/Info : Audio Coding 3
Mode extension : CM (complete main)
Codec ID : 2000
Duration : 1h 37mn
Bit rate mode : Constant
Bit rate : 192 Kbps
Channel(s) : 2 channels
Channel positions : Front: L R
Sampling rate : 48.0 KHz
Bit depth : 16 bits
Compression mode : Lossy
Stream size : 134 MiB (9%)
Alignment : Split accross interleaves
Interleave, duration : 42 ms (1.00 video frame)
Interleave, preload duration : 500 ms



Скачать О.боже!.Oh.God!.(Карл.Райнер.Carl.Reiner).[1977.комедия.DVDRip].[Dub].("Варус.Видео").torrent без регистрации
Золото ЗОЛОТАЯ РАЗДАЧА! СКАЧАННОЕ НЕ ЗАСЧИТЫВАЕТСЯ! Золото
Дата: Зарегистрирован   [ Тип: внутренний ] Как тут cкачать?
MAGNET ссылка
MAGNET ссылка


Скачать .torrent

2 KB

Статус: проверено DHT
Скачан: торрент - 133 раз, раздача полностью - 20 раз
Размер: 1,45 GB
Оценка:  - (Голосов: 0)
Поблагодарили: 1
Поделиться ссылкой на эту раздачу с друзьями:
В контактеFacebookОдноклассникиTwitterLivejournalМой МирLiveinternet
 

 
Показать сообщения:    


Вы не можете начинать темы
Вы не можете отвечать на сообщения
Вы не можете редактировать свои сообщения
Вы не можете удалять свои сообщения
Вы не можете голосовать в опросах
Вы не можете прикреплять файлы к сообщениям
Вы можете скачивать файлы