Loading...
Error

Скачать Святой / The Saint (Филлип Нойс) [1997, боевик, приключения, HDTVRip-AVC] [DVO] торрент без регистрации

 
Статистика раздачи
Размер:  1,46 GB   |    Скачан:  154 раза
Сидов:  1  [  0 KB/s  ]  
 
Автор Сообщение

leon030982

[] 

Название: Святой
Оригинальное название: The Saint
Год выхода: 1997
Страна: США
Студия: Paramount Pictures, Rysher Entertainment, Mace Neufeld Productions
Жанр: боевик, приключения
Продолжительность: 01:56:09
Перевод: Профессиональный (двухголосый,закадровый)

Режиссер: Филлип Нойс

В ролях: Вэл Килмер, Элизабет Шу, Раде Шербеджия, Валерий Николаев, Генри Гудман, Алан Армстронг, Майкл Бирн, Евгений Лазарев, Ирина Апексимова, Лев Прыгунов

О фильме:
Вэл Килмер играет роль знаменитого шпиона Саймона Тамплиера, завоевавшего репутацию неуловимого из-за своего редчайшего дара перевоплощения. Уставший от участия в сомнительных предприятиях, Саймон решает, что следующее задание станет последним.
Однако оно обещает быть нешуточным. Могущественный промышленный магнат из России Иван Третьяк поручает Саймону добыть сенсационную технологию производства самой дешевой в мире энергии, разработанную гениальным ученым Эммой Рассел.
С помощью этой технологии он намерен подчинить себе Россию, переживающую не лучшие времена. В дальнейшие планы магната входит мировое господство

Формат: MKV
Кодек: Н.264
Качество: HDTVRip-AVC
Видео: 1088 x 624, 29.970 fps, 1569 Kbps
Звук: AC3, 48 KHz, 2 ch, 192 Kbps
Субтитры: отсутствуют
Format : Matroska
Format version : Version 2
File size : 1.46 GiB
Duration : 1h 56mn
Overall bit rate : 1 797 Kbps
Writing application : SolveigMM Matroska Muxer Version 1.0.1112.1
Writing library : libmatroska 1.3.0

Video
ID : 1
Format : AVC
Format/Info : Advanced Video Codec
Format profile : High@L3.1
Format settings, CABAC : Yes
Format settings, ReFrames : 4 frames
Codec ID : V_MPEG4/ISO/AVC
Duration : 1h 56mn
Bit rate : 1 569 Kbps
Width : 1 088 pixels
Height : 624 pixels
Display aspect ratio : 16:9
Original display aspect ratio : 16:9
Frame rate : 29.970 fps
Color space : YUV
Chroma subsampling : 4:2:0
Bit depth : 8 bits
Scan type : Progressive
Bits/(Pixel*Frame) : 0.077
Stream size : 1.27 GiB (87%)
Language : English
Default : No
Forced : No

Audio
ID : 2
Format : AC-3
Format/Info : Audio Coding 3
Mode extension : CM (complete main)
Codec ID : A_AC3
Duration : 1h 56mn
Bit rate mode : Constant
Bit rate : 192 Kbps
Channel(s) : 2 channels
Channel positions : Front: L R
Sampling rate : 48.0 KHz
Bit depth : 16 bits
Compression mode : Lossy
Delay relative to video : 7ms
Stream size : 159 MiB (11%)
Language : English
Default : No
Forced : No



Скачать Святой.The.Saint.(Филлип.Нойс).[1997.боевик.приключения.HDTVRip-AVC].[DVO].torrent без регистрации
Золото ЗОЛОТАЯ РАЗДАЧА! СКАЧАННОЕ НЕ ЗАСЧИТЫВАЕТСЯ! Золото
Дата: Зарегистрирован   [ Тип: внутренний ] Как тут cкачать?
MAGNET ссылка
MAGNET ссылка


Скачать .torrent

15 KB

Статус: проверено DHT
Скачан: торрент - 154 раз, раздача полностью - 18 раз
Размер: 1,46 GB
Оценка:  5 (Голосов: 2)
Поблагодарили: 5
Поделиться ссылкой на эту раздачу с друзьями:
В контактеFacebookОдноклассникиTwitterLivejournalМой МирLiveinternet
 

 
Показать сообщения:    


Вы не можете начинать темы
Вы не можете отвечать на сообщения
Вы не можете редактировать свои сообщения
Вы не можете удалять свои сообщения
Вы не можете голосовать в опросах
Вы не можете прикреплять файлы к сообщениям
Вы можете скачивать файлы