Loading...
Error

Скачать Мистер Сталь / Steel (Кеннет Джонсон / Kenneth Johnson) [1997, Боевик, Фантастика, DVDRip] [DUB] ("Варус Видео") + [MVO] торрент без регистрации

 
Статистика раздачи
Размер:  1,46 GB   |    Скачан:  191 раз
Сидов:  1  [  0 KB/s  ]  
 
Автор Сообщение

leon030982

[] 

Мистер Сталь / Steel

Год выпуска: 1997
Страна: США
Жанр: Боевик, Фантастика
Продолжительность: 01:36:50
Перевод #1: Профессиональный (дублированный) "Варус Видео"
Перевод #2: Профессиональный (многоголосый закадровый)
Cубтитры: нет

Режиссер: Кеннет Джонсон / Kenneth Johnson

В ролях: Шакилл О'Нил / Shaquille O'Neal, Ричард Раундтри / Richard Roundtree, Джадд Нелсон / Judd Nelson, Эрик Пирпойнт / Eric Pierpoint, Темби Лок / Tembi Locke, Гэри Грэм / Gary Graham, Рэй Дж. / Ray J., Том Барри / Thom Barry, Хилл Харпер / Hill Harper/, Аннабет Гиш / Annabeth Gish, Чарлз Нэпьер / Charles Napier, Керри Кин / Kerrie Keane, Ирма П. Холл / Irma P. Hall

Описание: Обаятельный чернокожий великан (О Нил) уходит из армии, после того как его прекрасная коллега лейтенант Спаркс (Гиш) оказывается прикованной к инвалидному креслу из-за неудачного испытания нового сверхсекретного оружия. Во время эксперимента лейтенант Берк (Джадд Нелсон), вмешивается в испытание, что и приводит к несчастью. На суде чернокожий дает правдивые показания, и Берка увольняют из армии. Но уходит он не с пустыми руками - прихватывает с собой дискету, при помощи которой вместе с мафиози, торгующим оружием по всему миру, воссоздает секретное и смертельно опасное оружие. О Нил забирает из госпиталя для ветеранов свою подругу по армии и перевозит ее к своему старому другу. Тот владеет ремонтной мастерской на свалке, а руки его способны собрать что угодно из останков различного оборудования и машин. Они изготавливают доспехи из стали и универсальное оружие в виде огромного молота, после чего вступают в борьбу со злодеями, задумавшими продавать через Интернет инструменты убийства всем желающим. (Иванов М.)



Качество: DVDRip
Формат: AVI
Видео: XviD, 1756 Kbps, 720 х 400 pixels, 23.976 fps
Аудио 1: (DUB) AC3, Dolby Digital, 192 Kbps, 2 channels, Front: L R, 48.0 KHz
Аудио 2: (MVO) AC3, Dolby Digital, 192 Kbps, 2 channels, Front: L R, 48.0 KHz
General
Complete name : D:\Рабочая папка\Steel.1997.DVDRip.avi
Format : AVI
Format/Info : Audio Video Interleave
File size : 1.46 GiB
Duration : 1h 36mn
Overall bit rate : 2 154 Kbps
Writing application : VirtualDubModRus 1.5.10.2 (build 2542/release)
Writing library : VirtualDubMod build 2542/release
Video
ID : 0
Format : MPEG-4 Visual
Format profile : Advanced Simple@L5
Format settings, BVOP : 1
Format settings, QPel : No
Format settings, GMC : No warppoints
Format settings, Matrix : Default (MPEG)
Codec ID : XVID
Codec ID/Hint : XviD
Duration : 1h 36mn
Bit rate : 1 756 Kbps
Width : 720 pixels
Height : 400 pixels
Display aspect ratio : 16:9
Frame rate : 23.976 fps
Color space : YUV
Chroma subsampling : 4:2:0
Bit depth : 8 bits
Scan type : Progressive
Compression mode : Lossy
Bits/(Pixel*Frame) : 0.254
Stream size : 1.19 GiB (82%)
Writing library : XviD 63
Audio #1
ID : 1
Format : AC-3
Format/Info : Audio Coding 3
Mode extension : CM (complete main)
Codec ID : 2000
Duration : 1h 36mn
Bit rate mode : Constant
Bit rate : 192 Kbps
Channel(s) : 2 channels
Channel positions : Front: L R
Sampling rate : 48.0 KHz
Bit depth : 16 bits
Compression mode : Lossy
Stream size : 133 MiB (9%)
Alignment : Split accross interleaves
Interleave, duration : 42 ms (1.00 video frame)
Interleave, preload duration : 500 ms
Audio #2
ID : 2
Format : AC-3
Format/Info : Audio Coding 3
Mode extension : CM (complete main)
Codec ID : 2000
Duration : 1h 36mn
Bit rate mode : Constant
Bit rate : 192 Kbps
Channel(s) : 2 channels
Channel positions : Front: L R
Sampling rate : 48.0 KHz
Bit depth : 16 bits
Compression mode : Lossy
Stream size : 133 MiB (9%)
Alignment : Split accross interleaves
Interleave, duration : 42 ms (1.00 video frame)
Interleave, preload duration : 500 ms



Скачать Мистер.Сталь.Steel.(Кеннет.Джонсон.Kenneth.Johnson).[1997.Боевик.Фантастика.DVDRip].[DUB].("Варус.Видео").+.[MVO].torrent без регистрации
Золото ЗОЛОТАЯ РАЗДАЧА! СКАЧАННОЕ НЕ ЗАСЧИТЫВАЕТСЯ! Золото
Дата: Зарегистрирован   [ Тип: внутренний ] Как тут cкачать?
MAGNET ссылка
MAGNET ссылка


Скачать .torrent

15 KB

Статус: проверено DHT
Скачан: торрент - 191 раз, раздача полностью - 3 раз
Размер: 1,46 GB
Оценка:  5 (Голосов: 2)
Поблагодарили: 2
Поделиться ссылкой на эту раздачу с друзьями:
В контактеFacebookОдноклассникиTwitterLivejournalМой МирLiveinternet
 

 
Показать сообщения:    


Вы не можете начинать темы
Вы не можете отвечать на сообщения
Вы не можете редактировать свои сообщения
Вы не можете удалять свои сообщения
Вы не можете голосовать в опросах
Вы не можете прикреплять файлы к сообщениям
Вы можете скачивать файлы