Loading...
Error

Скачать Один изумруд, чтобы умереть / Passez une bonne nuit (Клод Боллинг / Claude Bolling) [1990, детектив, DVDRip] [DVO] + [Original Fre] торрент без регистрации

 
Статистика раздачи
Размер:  987 MB   |    Скачан:  146 раз
Сидов:  1  [  0 KB/s  ]  
 
Автор Сообщение

leon030982

[] 

Один изумруд, чтобы умереть / Passez une bonne nuit
Страна: Франция
Жанр: детектив
Год выпуска: 1990
Продолжительность: 01:31:09
Перевод: Профессиональный (двухголосый закадровый)
Cубтитры: нет
Оригинальная аудиодорожка: французский

Режиссер: Клод Боллинг / Claude Bolling

В ролях: Майкл Брэндон / Michael Brandon, Мариса Беренсон / Marisa Berenson, Ги Маршан / Guy Marchand, Стефан Бонне / Stephane Bonnet, Марк де Йонг / Marc de Jonge, Валери Стеффен / Valerie Steffen, Александра Лорска / Alexandra Lorska, Софи Ренор / Sophie Renoir


Описание: По роману Джеймса Хедли Чейза "Спокойной ночи".
После трехлетнего уединения в трауре по умершему мужу кинозвезда устраивает благотворительный аукцион. За пять миллионов долларов на продажу выставлен уникальный изумруд. Торги прерывают люди, которые оценивают стоимость камня по-своему - теперь на кону жизнь его хозяйки и охранника...


Доп. информация:
Релиз
КАК ВСЕГДА БОЛЬШОЕ СПАСИБО:
Рип и синхронизация звука grafd

Звук stepa

Качество видео: DVDRip
Формат видео: AVI
Видео: 656x400 (1.64:1), 25 fps, XviD MPEG-4 ~1241 kbps avg, 0.19 bit/pixel
Аудио: 48 kHz, MPEG Layer 3, 2 ch, ~128.00 kbps avg Русский двухголосый
Аудио 2: 48 kHz, MPEG Layer 3, 2 ch, ~128.00 kbps avg Французский
General
Complete name : D:\Раздачи\Passez.Une.Bonne.Nuit.1990.RUS.FR.grafd.fenixclub.com.avi
Format : AVI
Format/Info : Audio Video Interleave
File size : 987 MiB
Duration : 1h 31mn
Overall bit rate : 1 513 Kbps
Director : stepa, grafd
Writing application : VirtualDubMod 1.5.10.2 (build 2542/release)
Writing library : VirtualDubMod build 2542/release
Comment : fenixclub.com
Video
ID : 0
Format : MPEG-4 Visual
Format profile : Advanced Simple@L5
Format settings, BVOP : 2
Format settings, QPel : No
Format settings, GMC : No warppoints
Format settings, Matrix : Default (H.263)
Muxing mode : Packed bitstream
Codec ID : XVID
Codec ID/Hint : XviD
Duration : 1h 31mn
Bit rate : 1 243 Kbps
Width : 656 pixels
Height : 400 pixels
Display aspect ratio : 1.640
Frame rate : 25.000 fps
Color space : YUV
Chroma subsampling : 4:2:0
Bit depth : 8 bits
Scan type : Progressive
Compression mode : Lossy
Bits/(Pixel*Frame) : 0.189
Stream size : 810 MiB (82%)
Writing library : XviD 64
Audio #1
ID : 1
Format : MPEG Audio
Format version : Version 1
Format profile : Layer 3
Codec ID : 55
Codec ID/Hint : MP3
Duration : 1h 31mn
Bit rate mode : Constant
Bit rate : 128 Kbps
Channel(s) : 2 channels
Sampling rate : 48.0 KHz
Compression mode : Lossy
Delay relative to video : 96ms
Stream size : 83.4 MiB (8%)
Alignment : Aligned on interleaves
Interleave, duration : 40 ms (1.00 video frame)
Interleave, preload duration : 504 ms
Title : ru
Audio #2
ID : 2
Format : MPEG Audio
Format version : Version 1
Format profile : Layer 3
Codec ID : 55
Codec ID/Hint : MP3
Duration : 1h 31mn
Bit rate mode : Constant
Bit rate : 128 Kbps
Channel(s) : 2 channels
Sampling rate : 48.0 KHz
Compression mode : Lossy
Stream size : 83.4 MiB (8%)
Alignment : Aligned on interleaves
Interleave, duration : 40 ms (1.00 video frame)
Interleave, preload duration : 504 ms
Title : fr



Скачать Один.изумруд.чтобы.умереть.Passez.une.bonne.nuit.(Клод.Боллинг.Claude.Bolling).[1990.детектив.DVDRip].[DVO].+.[Original.Fre].torrent без регистрации
Золото ЗОЛОТАЯ РАЗДАЧА! СКАЧАННОЕ НЕ ЗАСЧИТЫВАЕТСЯ! Золото
Дата: Зарегистрирован   [ Тип: внутренний ] Как тут cкачать?
MAGNET ссылка
MAGNET ссылка


Скачать .torrent

20 KB

Статус: проверено DHT
Скачан: торрент - 146 раз, раздача полностью - 29 раз
Размер: 987 MB
Оценка:  - (Голосов: 0)
Поблагодарили: 0
Поделиться ссылкой на эту раздачу с друзьями:
В контактеFacebookОдноклассникиTwitterLivejournalМой МирLiveinternet
 

 
Показать сообщения:    


Вы не можете начинать темы
Вы не можете отвечать на сообщения
Вы не можете редактировать свои сообщения
Вы не можете удалять свои сообщения
Вы не можете голосовать в опросах
Вы не можете прикреплять файлы к сообщениям
Вы можете скачивать файлы