Loading...
Error

Скачать Заклинатель лошадей / The Horse Whisperer (Роберт Редфорд /Robert Redford) [1998, Mелодрама, драма, вестерн, BDRip] 2х[MVO] + [AVO] (Живов) + [Original Eng] торрент без регистрации

 
Статистика раздачи
Размер:  3,72 GB   |    Скачан:  130 раз
Сидов:  1  [  0 KB/s  ]  
 
Автор Сообщение

leon030982

[] 

Заклинатель лошадей / The Horse Whisperer
Страна: США, Touchstone Pictures, Wildwood Enterprises
Жанр: Mелодрама, драма, вестерн
Год выпуска: 1998
Продолжительность: 02:49:16
Перевод: Профессиональный (многоголосый, закадровый) x2
Перевод: Авторский одноголосый (Ю. Живов)
Оригинальная аудиодорожка: английский

Режиссер: Роберт Редфорд /Robert Redford

В ролях: Роберт Редфорд, Кристин Скотт Томас, Сэм Нил, Дайэнн Уист, Скарлетт Йоханссон, Крис Купер, Черри Джонс, Ти Хиллман, Кейт Босворт, Остин Шварц, Дастин Шварц, Жанетт Нолан, Стив Фрай, Дон Эдвардс, Джессалин Гилсиг, Мишель Лалонд, Стивен Перлман, Глория Линн Генри

Описание: Самое страшное испытание для любой матери — несчастье с ее ребенком. Энни Маклин убедилась в этом на собственном опыте. Во время верховой прогулки серьезно пострадала ее дочь. Энни бессильна помочь несчастной девочке и в отчаянии увозит ее из шумного города на Дикий Запад, прочь от суеты и печальных воспоминаний. Мать и дочь не подозревают, что здесь они встретят человека, которому под силу изменить их судьбу. Том Букер — укротитель лошадей, обладающий таинственной властью над животными. И его глубокий дар способен исцелять душевные раны.

- Релиз подготовил nnlabetik.
Качество видео: BDRip
Формат видео: AVI
Видео: XviD, 720x304 (16:9), 23.976 fps, 1651 kbps
Аудио: AC3, 48 kHz, 5/1 3/2 (L,C,R,L R, LFE) ch, ~448.00 kbps [Russian] (MVO - НТВ+)
Аудио 2: AC3, 48 kHz, 2/0 (L,R) ch, ~192.00 kbps [Russian] (MVO - Dolby Surround)
Аудио 3: AC3, 48 kHz, 5/1 3/2 (L,C,R,L R, LFE) ch, ~384.00 kbps [Russian] (AVO - Ю.Живов)
Аудио 4: AC3, 48 kHz, 5/1 3/2 (L,C,R,L R, LFE) ch, ~448.00 kbps [English]
Общее
Полное имя : C:\Zaklinatel.loshadei.1998.BDRip\Zaclinatel.loshadei.1998.XviD.BDRip.avi
Формат : AVI
Формат/Информация : Audio Video Interleave
Профиль формата : OpenDML
Размер файла : 3,72 Гбайт
Продолжительность : 2 ч. 49 м.
Общий поток : 3146 Кбит/сек
Режиссёр : Release by ==nnlabetik==
Программа кодирования : VirtualDubMod 1.5.10.2 (build 2540/release)
Библиотека кодирования : VirtualDubMod build 2540/release
Видео
Идентификатор : 0
Формат : MPEG-4 Visual
Профиль формата : Advanced Simple@L5
Параметр BVOP формата : 1
Параметр QPel формата : Нет
Параметр GMC формата : Без точки перехода
Параметр матрицы формата : Default (MPEG)
Режим смешивания : Сжатый битовый поток
Идентификатор кодека : XVID
Идентификатор кодека/Подсказка : XviD
Продолжительность : 2 ч. 49 м.
Битрейт : 1651 Кбит/сек
Ширина : 720 пикселей
Высота : 304 пикселя
Соотношение сторон : 2,35:1
Частота кадров : 23,976 кадра/сек
Цветовое пространство : YUV
Субдискретизация насыщенности : 4:2:0
Битовая глубина : 8 бит
Тип развёртки : Прогрессивная
Метод сжатия : С потерями
Бит/(Пиксели*Кадры) : 0.315
Размер потока : 1,95 Гбайт (52%)
Библиотека кодирования : XviD 1.2.1 (UTC 2008-12-04)
Аудио #1
Идентификатор : 1
Формат : AC-3
Формат/Информация : Audio Coding 3
Расширение режима : CM (complete main)
Параметр Endianness формата : Big
Идентификатор кодека : 2000
Продолжительность : 2 ч. 49 м.
Вид битрейта : Постоянный
Битрейт : 448 Кбит/сек
Каналы : 6 каналов
Расположение каналов : Front: L C R, Side: L R, LFE
Частота : 48,0 КГц
Битовая глубина : 16 бит
Метод сжатия : С потерями
Размер потока : 542 Мбайт (14%)
Выравнивание : Разделение по промежуткам
Продолжительность промежутка : 42 мс. (1,00 видеокадр)
Время предзагрузки промежутка : 500 мс.
Аудио #2
Идентификатор : 2
Формат : AC-3
Формат/Информация : Audio Coding 3
Профиль формата : Dolby Digital
Расширение режима : CM (complete main)
Параметр Endianness формата : Big
Идентификатор кодека : 2000
Продолжительность : 2 ч. 49 м.
Вид битрейта : Постоянный
Битрейт : 192 Кбит/сек
Каналы : 2 канала
Расположение каналов : Front: L R
Частота : 48,0 КГц
Битовая глубина : 16 бит
Метод сжатия : С потерями
Размер потока : 232 Мбайт (6%)
Выравнивание : Разделение по промежуткам
Продолжительность промежутка : 42 мс. (1,00 видеокадр)
Время предзагрузки промежутка : 500 мс.
Аудио #3
Идентификатор : 3
Формат : AC-3
Формат/Информация : Audio Coding 3
Расширение режима : CM (complete main)
Параметр Endianness формата : Big
Идентификатор кодека : 2000
Продолжительность : 2 ч. 49 м.
Вид битрейта : Постоянный
Битрейт : 384 Кбит/сек
Каналы : 6 каналов
Расположение каналов : Front: L C R, Side: L R, LFE
Частота : 48,0 КГц
Битовая глубина : 16 бит
Метод сжатия : С потерями
Размер потока : 465 Мбайт (12%)
Выравнивание : Разделение по промежуткам
Продолжительность промежутка : 42 мс. (1,00 видеокадр)
Время предзагрузки промежутка : 500 мс.
Аудио #4
Идентификатор : 4
Формат : AC-3
Формат/Информация : Audio Coding 3
Расширение режима : CM (complete main)
Параметр Endianness формата : Big
Идентификатор кодека : 2000
Продолжительность : 2 ч. 49 м.
Вид битрейта : Постоянный
Битрейт : 448 Кбит/сек
Каналы : 6 каналов
Расположение каналов : Front: L C R, Side: L R, LFE
Частота : 48,0 КГц
Битовая глубина : 16 бит
Метод сжатия : С потерями
Размер потока : 542 Мбайт (14%)
Выравнивание : Разделение по промежуткам
Продолжительность промежутка : 42 мс. (1,00 видеокадр)
Время предзагрузки промежутка : 500 мс.



Скачать Заклинатель.лошадей.The.Horse.Whisperer.(Роберт.Редфорд.Robert.Redford).[1998.Mелодрама.драма.вестерн.BDRip].2х[MVO].+.[AVO].(Живов).+.[Original.Eng].torrent без регистрации
Золото ЗОЛОТАЯ РАЗДАЧА! СКАЧАННОЕ НЕ ЗАСЧИТЫВАЕТСЯ! Золото
Дата: Зарегистрирован   [ Тип: внутренний ] Как тут cкачать?
MAGNET ссылка
MAGNET ссылка


Скачать .torrent

19 KB

Статус: проверено DHT
Скачан: торрент - 130 раз, раздача полностью - 2 раз
Размер: 3,72 GB
Оценка:  - (Голосов: 0)
Поблагодарили: 0
Поделиться ссылкой на эту раздачу с друзьями:
В контактеFacebookОдноклассникиTwitterLivejournalМой МирLiveinternet
 

 
Показать сообщения:    


Вы не можете начинать темы
Вы не можете отвечать на сообщения
Вы не можете редактировать свои сообщения
Вы не можете удалять свои сообщения
Вы не можете голосовать в опросах
Вы не можете прикреплять файлы к сообщениям
Вы можете скачивать файлы