Loading...
Error

Скачать Король кикбоксёров 2 / Дух борьбы / Бойцовский дух / King of the Kickboxers 2 / Fighting Spirit (Джон Ллойд / John Lloyd) [1992, боевик, DVDRip] [AVO] (Медведев) торрент без регистрации

 
Статистика раздачи
Размер:  1,46 GB   |    Скачан:  233 раза
Сидов:  1  [  0 KB/s  ]  
 
Автор Сообщение

leon030982

[] 

Король кикбоксёров 2 / Дух борьбы / Бойцовский дух / King of the Kickboxers 2 / Fighting Spirit
Страна: США
Жанр: боевик
Год выпуска: 1992
Продолжительность: 01:30:46
Перевод: Авторский (одноголосый закадровый) Юрий Медведев (ненормативная лексика)
Cубтитры: нет
Режиссер: Джон Ллойд / John Lloyd

В ролях: Лорен Аведон, Шон П. Донахью, Грег Дугласс, Мишель Лок, Нед Хурани, Джерри Бейер, Санти Джордана, Мишель Монти
Описание: У молодого бойца Билли пострадала сестра, Джудит, при бандитском нападении. Ей может помочь дорогостоящая операция. Выхода нет, он соглашается с предложением криминального авторитета - Рассела, участвовать в незаконных уличных поединках. Такой поединок может стать последним в его жизни. Поняв, кто за этим всем стоит, он пытается покончить с этим. Но люди Рассела, ответственные за трагедию Джудит, настигают его. За его смерть поклялся отомстить лучший друг - Дэвид.

Качество видео: DVDRip
Формат видео: AVI
Видео: 688x512 (1.34:1), 25 fps, XviD build 65 ~2094 kbps avg, 0.24 bit/pixel
Аудио: 48 kHz, AC3 Dolby Digital, 2/0 (L,R) ch, ~192 kbps
Выражается особая благодарность Юрию Медведеву за перевод фильма (июнь 2012 г.), а также всем пользователям данного форума, благодаря которым, перевод стал возможен:
Kino-profan, NeonBoyBoy, puchkin11, ytrew, Анемподист, ivan ser, Sedorelli, kofka19, belokonn, Шаoлинь, Партизан1981, СЕРДЖ84
также Kino-profan за сборку диска
General
Complete name : D:\Релизы\King of the Kickboxers 2.1992.RUS.DVDRip.XviD.AC3.avi
Format : AVI
Format/Info : Audio Video Interleave
File size : 1.46 GiB
Duration : 1h 30mn
Overall bit rate : 2 296 Kbps
Writing application : VirtualDubMod 1.5.10.2 (build 2540/release)
Writing library : VirtualDubMod build 2540/release
Video
ID : 0
Format : MPEG-4 Visual
Format profile : Advanced Simple@L5
Format settings, BVOP : 1
Format settings, QPel : No
Format settings, GMC : No warppoints
Format settings, Matrix : Custom
Codec ID : XVID
Codec ID/Hint : XviD
Duration : 1h 30mn
Bit rate : 2 095 Kbps
Width : 688 pixels
Height : 512 pixels
Display aspect ratio : 4:3
Frame rate : 25.000 fps
Color space : YUV
Chroma subsampling : 4:2:0
Bit depth : 8 bits
Scan type : Progressive
Compression mode : Lossy
Bits/(Pixel*Frame) : 0.238
Stream size : 1.33 GiB (91%)
Writing library : XviD 65
Audio
ID : 1
Format : AC-3
Format/Info : Audio Coding 3
Mode extension : CM (complete main)
Format settings, Endianness : Big
Codec ID : 2000
Duration : 1h 30mn
Bit rate mode : Constant
Bit rate : 192 Kbps
Channel(s) : 2 channels
Channel positions : Front: L R
Sampling rate : 48.0 KHz
Bit depth : 16 bits
Compression mode : Lossy
Stream size : 125 MiB (8%)
Alignment : Split accross interleaves
Interleave, duration : 40 ms (1.00 video frame)
Interleave, preload duration : 500 ms



Скачать Король.кикбоксёров.2.Дух.борьбы.Бойцовский.дух.King.of.the.Kickboxers.2.Fighting.Spirit.(Джон.Ллойд.John.Lloyd).[1992.боевик.DVDRip].[AVO].(Медведев).torrent без регистрации
Золото ЗОЛОТАЯ РАЗДАЧА! СКАЧАННОЕ НЕ ЗАСЧИТЫВАЕТСЯ! Золото
Дата: Зарегистрирован   [ Тип: внутренний ] Как тут cкачать?
MAGNET ссылка
MAGNET ссылка


Скачать .torrent

15 KB

Статус: проверено DHT
Скачан: торрент - 233 раз, раздача полностью - 128 раз
Размер: 1,46 GB
Оценка:  - (Голосов: 0)
Поблагодарили: 0
Поделиться ссылкой на эту раздачу с друзьями:
В контактеFacebookОдноклассникиTwitterLivejournalМой МирLiveinternet
 

 
Показать сообщения:    


Вы не можете начинать темы
Вы не можете отвечать на сообщения
Вы не можете редактировать свои сообщения
Вы не можете удалять свои сообщения
Вы не можете голосовать в опросах
Вы не можете прикреплять файлы к сообщениям
Вы можете скачивать файлы