Loading...
Error

Скачать Шери / Дорогуша / Cheri (Стивен Фрирз) [2009, драма, мелодрама, комедия, BDRip-AVC] [Dub] торрент без регистрации

 
Статистика раздачи
Размер:  1,44 GB   |    Скачан:  119 раз

Полного источника не было: 4 месяца 14 дней

 
Автор Сообщение

Marsianka

[] 

Шери / Дорогуша / Cheri (2009) BDRip-AVC от PowerTracker

Жанр: драма, мелодрама, комедия
Страна: Германия , Франция , Великобритания
Режиссер: Стивен Фрирз
В ролях: Мишель Пфайффер, Фрэнсис Томелти, Том Бурк, Руперт Френд, Хьюберт Телледжен, Джо Шеридан, Кэти Бейтс, Тоби Кеббелл, Фелисити Джонс, Ибен Яйль

Сюжет фильма: История любви между Леа, прекрасной куртизанкой в отставке, и Шери, сыном ее старой коллеги и соперницы мадам Пелу. Леа обучает испорченного, но неопытного юнца тонкостям любви, их роман длится вот уже шесть лет, но мадам Пелу тайным образом женит Шери на дочери другой богатой куртизанки.

По мере приближения неотвратимого момента расставания, Леа и Шери пытаются примириться с разлукой, но удовольствие и легкость, связанные с любовью, уже проросли в их жизнях настолько глубоко, что только сейчас влюбленные начинают понимать, как много они значат друг для друга.


Мировая премьера: 10 февраля 2009
Российская премьера: 25 февраля 2010, «Кино без границ»



Продолжительность: 01:32:31
Качество видео: BDRip-AVC
Видео: кодек: x264, размер кадра: 1024x432, битрейт: 1727 кб/с, bit/pixel: 0.163
Аудио #1: язык: Русский , перевод: дублированный (дубляж), кодек: AC3 5.1, битрейт: 384.00 кб/с
Аудио #2: язык: Английский , перевод: оригинал, кодек: AC3 2.0, битрейт: 192.00 кб/с

&
Общее
Уникальный идентификатор : 190932530265025730211263200333708435294 (0x8FA4448A937B7A9E8B21FF2048209F5E)
Полное имя : D:Cheri.2009.BDRip-AVC.PT.mkv
Формат : Matroska
Версия формата : Version 2
Размер файла : 1,44 Гбайт
Продолжительность : 1 ч. 32 м.
Общий поток : 2235 Кбит/сек
Название фильма : Шери / Дорогуша / Cheri (2009) BDRip-AVC rip by rulya74
Дата кодирования : UTC 2012-06-29 17:19:28
Программа кодирования : mkvmerge v5.2.1 ('A Far Off Place') built on Jan 2 2012 23:21:10
Библиотека кодирования : libebml v1.2.3 + libmatroska v1.3.0

Видео
Идентификатор : 1
Формат : AVC
Формат/Информация : Advanced Video Codec
Профиль формата : High@L4.1
Параметр CABAC формата : Да
Параметр ReFrames формата : 12 кадров
Идентификатор кодека : V_MPEG4/ISO/AVC
Продолжительность : 1 ч. 32 м.
Битрейт : 1727 Кбит/сек
Ширина : 1024 пикселя
Высота : 432 пикселя
Соотношение сторон : 2,35:1
Частота кадров : 24,000 кадра/сек
Цветовое пространство : YUV
Субдискретизация насыщенности : 4:2:0
Битовая глубина : 8 бит
Тип развёртки : Прогрессивная
Бит/(Пиксели*Кадры) : 0.163
Размер потока : 1,08 Гбайт (75%)
Библиотека кодирования : x264 core 120 r2164 da19765
Настройки программы : cabac=1 / ref=12 / deblock=1:-3:-3 / analyse=0x3:0x113 / me=umh / subme=10 / psy=1 / psy_rd=1.00:0.00 / mixed_ref=1 / me_range=39 / chroma_me=1 / trellis=2 / 8x8dct=1 / cqm=0 / deadzone=21,11 / fast_pskip=1 / chroma_qp_offset=-2 / threads=15 / sliced_threads=0 / nr=0 / decimate=1 / interlaced=0 / bluray_compat=0 / constrained_intra=0 / bframes=13 / b_pyramid=2 / b_adapt=1 / b_bias=0 / direct=3 / weightb=1 / open_gop=0 / weightp=2 / keyint=240 / keyint_min=24 / scenecut=40 / intra_refresh=0 / rc=2pass / mbtree=0 / bitrate=1727 / ratetol=1.0 / qcomp=0.60 / qpmin=10 / qpmax=51 / qpstep=4 / cplxblur=20.0 / qblur=0.5 / ip_ratio=1.40 / pb_ratio=1.30 / aq=1:1.00
Default : Да
Forced : Нет

Аудио #1
Идентификатор : 2
Формат : AC-3
Формат/Информация : Audio Coding 3
Расширение режима : CM (complete main)
Идентификатор кодека : A_AC3
Продолжительность : 1 ч. 32 м.
Вид битрейта : Постоянный
Битрейт : 384 Кбит/сек
Каналы : 6 каналов
Расположение каналов : Front: L C R, Side: L R, LFE
Частота : 48,0 КГц
Битовая глубина : 16 бит
Метод сжатия : С потерями
Размер потока : 254 Мбайт (17%)
Заголовок : Дубляж
Язык : Russian
Default : Да
Forced : Нет

Аудио #2
Идентификатор : 3
Формат : AC-3
Формат/Информация : Audio Coding 3
Расширение режима : CM (complete main)
Идентификатор кодека : A_AC3
Продолжительность : 1 ч. 32 м.
Вид битрейта : Постоянный
Битрейт : 128 Кбит/сек
Каналы : 2 канала
Расположение каналов : Front: L R
Частота : 48,0 КГц
Битовая глубина : 16 бит
Метод сжатия : С потерями
Размер потока : 84,7 Мбайт (6%)
Заголовок : Оригинал
Язык : English
Default : Нет
Forced : Нет



Скачать Шери.Дорогуша.Cheri.(Стивен.Фрирз).[2009.драма.мелодрама.комедия.BDRip-AVC].[Dub].torrent без регистрации
Золото ЗОЛОТАЯ РАЗДАЧА! СКАЧАННОЕ НЕ ЗАСЧИТЫВАЕТСЯ! Золото
Дата: Зарегистрирован   [ Тип: внутренний ] Как тут cкачать?
MAGNET ссылка
MAGNET ссылка


Скачать .torrent

15 KB

Статус: проверено
Скачан: торрент - 119 раз, раздача полностью - 7 раз
Размер: 1,44 GB
Оценка:  - (Голосов: 0)
Поблагодарили: 2
Поделиться ссылкой на эту раздачу с друзьями:
В контактеFacebookОдноклассникиTwitterLivejournalМой МирLiveinternet
 

 
Показать сообщения:    


Вы не можете начинать темы
Вы не можете отвечать на сообщения
Вы не можете редактировать свои сообщения
Вы не можете удалять свои сообщения
Вы не можете голосовать в опросах
Вы не можете прикреплять файлы к сообщениям
Вы можете скачивать файлы