Loading...
Error

Скачать Три икса 2: Новый уровень / xXx: State of the Union (Ли Тамахори) [2005 г., боевик, триллер, криминал, приключения, BDRip-AVC] [Dub]+[Original]+[Sub (Rus)] торрент без регистрации

 
Статистика раздачи
Размер:  2,91 GB   |    Скачан:  154 раза
Сидов:  1  [  0 KB/s  ]  
 
Автор Сообщение

Dinozavr

[] 

Три икса 2: Новый уровень / xXx: State of the Union
«На грани хаоса и террора приходит время нового героя»

Год выпуска: 2005
Страна: США
Жанр: боевик, триллер, криминал, приключения
Продолжительность: 01:40:58
Перевод: Профессиональный (полное дублирование)
Режиссер: Ли Тамахори
В ролях: Уиллем Дефо, Сэмюэл Л. Джексон, Айс Кьюб, Скотт Спидман, Иксзибит, Питер Штраусс, Майкл Руф, Санни Мабри, Нона Гей, Джон Дж. Коннолли
Описание: Америка снова в опасности, и на сей раз беда пришла откуда не ждали: удар по демократии был нанесен изнутри! Группа высокопоставленных заговорщиков в белом доме поднимает мятеж с целью захвата власти. Спецслужбы бессильны — бунтовщики разгромили Агентство Национальной Безопасности (АНБ).

Страна на грани хаоса и террора, но у чудом выжившего офицера АНБ Огастеса Гиббонса остается последний козырь, способный спасти положение. Это Дариус Стоун, крутой и хладнокровный суперагент XXI века, отобранный по сверхсекретной программе «Три Икса». Оставляя после себя смерть и разрушения, этот человек-армия вступает в битву, которая решит судьбу Америки и всего мира…
Качество:
BDRip-AVC (источник - BD-Remux 1080p)
Формат: MKV
Видео: H.264,
1056x440 (2.40:1), 23,976 fps, ~3353 kbps, 0.301 bit/pixel
Аудио #1: AC3, 48 kHz, 6 ch, ~384 kbps [Rus]
Аудио #2: AC3, 48 kHz, 6 ch, ~384 kbps [Eng]
Cубтитры: русские


Код:

General
Unique ID : 218084134706388883737125269095783985591 (0xA41179FEB37FC2548DC983ED504DF1B7)
Complete name : xXx The Next Level.mkv
Format : Matroska
Format version : Version 2
File size : 2.91 GiB
Duration : 1h 40mn
Overall bit rate : 4 123 Kbps
Encoded date : UTC 2011-08-09 13:39:16
Writing application : mkvmerge v4.7.0 ('Just Like You Imagined') сборка от Apr 21 2011 01:13:14
Writing library : libebml v1.2.0 + libmatroska v1.1.0

Video
ID : 1
Format : AVC
Format/Info : Advanced Video Codec
Format profile : High@L4.1
Format settings, CABAC : Yes
Format settings, ReFrames : 9 frames
Codec ID : V_MPEG4/ISO/AVC
Duration : 1h 40mn
Bit rate : 3 353 Kbps
Width : 1 056 pixels
Height : 440 pixels
Display aspect ratio : 2.40:1
Frame rate : 23.976 fps
Color space : YUV
Chroma subsampling : 4:2:0
Bit depth : 8 bits
Scan type : Progressive
Bits/(Pixel*Frame) : 0.301
Stream size : 2.31 GiB (79%)
Writing library : x264 core 115 r1995 c1e60b9
Encoding settings : cabac=1 / ref=9 / deblock=1:-1:-1 / analyse=0x3:0x113 / me=umh / subme=10 / psy=1 / psy_rd=1.00:0.05 / mixed_ref=1 / me_range=32 / chroma_me=1 / trellis=2 / 8x8dct=1 / cqm=0 / deadzone=21,11 / fast_pskip=0 / chroma_qp_offset=-2 / threads=6 / sliced_threads=0 / nr=0 / decimate=1 / interlaced=0 / bluray_compat=0 / constrained_intra=0 / bframes=6 / b_pyramid=2 / b_adapt=2 / b_bias=0 / direct=3 / weightb=1 / open_gop=0 / weightp=2 / keyint=250 / keyint_min=23 / scenecut=40 / intra_refresh=0 / rc_lookahead=60 / rc=2pass / mbtree=1 / bitrate=3353 / ratetol=1.0 / qcomp=0.60 / qpmin=0 / qpmax=63 / qpstep=4 / cplxblur=20.0 / qblur=0.5 / ip_ratio=1.40 / aq=1:0.80
Language : English

Audio #1
ID : 2
Format : AC-3
Format/Info : Audio Coding 3
Mode extension : CM (complete main)
Codec ID : A_AC3
Duration : 1h 40mn
Bit rate mode : Constant
Bit rate : 384 Kbps
Channel(s) : 6 channels
Channel positions : Front: L C R, Side: L R, LFE
Sampling rate : 48.0 KHz
Bit depth : 16 bits
Compression mode : Lossy
Stream size : 277 MiB (9%)
Title : Dub
Language : Russian

Audio #2
ID : 3
Format : AC-3
Format/Info : Audio Coding 3
Mode extension : CM (complete main)
Codec ID : A_AC3
Duration : 1h 40mn
Bit rate mode : Constant
Bit rate : 384 Kbps
Channel(s) : 6 channels
Channel positions : Front: L C R, Side: L R, LFE
Sampling rate : 48.0 KHz
Bit depth : 16 bits
Compression mode : Lossy
Stream size : 277 MiB (9%)
Title : Original
Language : English

Text
ID : 4
Format : UTF-8
Codec ID : S_TEXT/UTF8
Codec ID/Info : UTF-8 Plain Text
Language : Russian



Скачать Три.икса.2.Новый.уровень.xXx.State.of.the.Union.(Ли.Тамахори).[2005.г.боевик.триллер.криминал.приключения.BDRip-AVC].[Dub]+[Original]+[Sub.(Rus)].torrent без регистрации
Золото ЗОЛОТАЯ РАЗДАЧА! СКАЧАННОЕ НЕ ЗАСЧИТЫВАЕТСЯ! Золото
Дата: Зарегистрирован   [ Тип: внутренний ] Как тут cкачать?
MAGNET ссылка
MAGNET ссылка


Скачать .torrent

15 KB

Статус: проверено DHT
Скачан: торрент - 154 раз, раздача полностью - 78 раз
Размер: 2,91 GB
Оценка:  - (Голосов: 0)
Поблагодарили: 2
Поделиться ссылкой на эту раздачу с друзьями:
В контактеFacebookОдноклассникиTwitterLivejournalМой МирLiveinternet
 

 
Показать сообщения:    


Вы не можете начинать темы
Вы не можете отвечать на сообщения
Вы не можете редактировать свои сообщения
Вы не можете удалять свои сообщения
Вы не можете голосовать в опросах
Вы не можете прикреплять файлы к сообщениям
Вы можете скачивать файлы