Loading...
Error

Скачать Голубая лагуна / The Blue Lagoon (Рэндал Клайзер) [1980, драма, мелодрама, приключения, DVDRip] [MVO] торрент без регистрации

 
Статистика раздачи
Размер:  1,46 GB   |    Скачан:  164 раза
Сидов:  1  [  0 KB/s  ]  
 
Автор Сообщение

МихаНЕзатор

[] 

Голубая лагуна / The Blue Lagoon


«Красивая история о любви...»
Страна: США
Жанр: драма, мелодрама, приключения
Год выпуска: 1980
Продолжительность: 01:40:34
Бюджет: $4 500 000
Рейтинг MMPA:
Перевод: Профессиональный (многоголосый закадровый) [ВидеоСервис]
Cубтитры: нет
Режиссер: Рэндал Клайзер / Randal Kleiser
В ролях: Брук Шилдс, Кристофер Аткинс, Лео МакКерн, Уильям Дэниелс, Элва Джозефсон, Гленн Коэн, Алан Хопгуд, Гас Мёркюрио, Джефри Клайзер, Брэдли Прайс

Описание: Страшное кораблекрушение, счастливое спасение и необитаемый остров положили начало одной из самых красивых и трогательных историй о любви. Долгие годы юная пара живет на прекрасном тропическом острове. Но по мере того, как они взрослеют, в их сердцах зарождается возвышенная, красивая, как окружающий мир, любовь.



Качество видео: DVDRip [исходник ]
Формат видео: AVI
Видео: Xvid, 704x384, 25 fps, 1873 kbps, 0.27 bit/pixel
Аудио: AC3 Dolby Digital, 48 kHz, 192 kbps, 2/0 (L,R) ch
Из-за традиционного мнения, что мужественный герой должен быть выше своей партнёрши, Брук Шилдс в значительной части сцен была вынуждена стоять и ходить в специально выкопанных канавках в песке пляжа. В свои 14 лет актриса (рост 177 см) была на 10 сантиметров выше 18-летнего Кристофера Аткинса.
Все обнажённые сцены с участием Эммелин (Брук Шилдс) были сняты с использованием дублёров. В ряде других сцен она появляется со своими собственными волосами приклеенными к груди.
Режиссёрский замысел, по которому двое подростков должны были сниматься на протяжении всего фильма частично или полностью обнажёнными отпугнул многих актёров, потенциальных кандидатов на главные роли, включая саму Брук Шилдс, которая была изначально выбрана на роль Эммелин. После её отказа продюсеры сделали предложение ещё нескольким актёрам, в числе которых были Дайан Лэйн, Мэтт Диллон и Лори Лафлин, но все они также отклонили предложение. Когда до начала съёмок оставалось всего несколько дней, в отчаянии режиссёр согласился на то, что в Брук Шилдс не будет сниматься полностью обнажённой, а там где это будет необходимо, её заменят дублёры. Когда этот вопрос был решён, режиссёр вернулся к записям прослушиваний более чем 4 тысяч кандидатов на главную мужскую роль, которая в итоге досталась Кристоферу Аткинсу.
После того как основная дублёрша Брук Шилдс получила травму спины, её в отдельных сценах заменяли координатор трюковых съёмок Кати Тротт, а также, приглашённая для съёмок тренер и дрессировщик дельфинов.
Флора и фауна острова, на котором оказываются главные герои, абсолютно не соответствует предполагаемому месту действия картины. Ради большей экзотики на остров был помещён очень пестрый набор животных с разных континентов и климатических поясов.
Съёмки фильма прошли главным образом на острове Нануя-Леву в архипелаге Фиджи в Тихом Океане и на Ямайке.
General
Complete name : The.Blue.Lagoon.1980.DVDRip.Xvid.AC3-Zombie.Lee.avi
Format : AVI
Format/Info : Audio Video Interleave
File size : 1.46 GiB
Duration : 1h 40mn
Overall bit rate : 2 075 Kbps
Writing library : VirtualDub build 33790/release
Video
ID : 0
Format : MPEG-4 Visual
Format profile : Advanced Simple@L5
Format settings, BVOP : 1
Format settings, QPel : No
Format settings, GMC : No warppoints
Format settings, Matrix : Custom
Codec ID : XVID
Codec ID/Hint : XviD
Duration : 1h 40mn
Bit rate : 1 874 Kbps
Width : 704 pixels
Height : 384 pixels
Display aspect ratio : 16:9
Frame rate : 25.000 fps
Color space : YUV
Chroma subsampling : 4:2:0
Bit depth : 8 bits
Scan type : Progressive
Compression mode : Lossy
Bits/(Pixel*Frame) : 0.277
Stream size : 1.32 GiB (90%)
Writing library : XviD 64
Audio
ID : 1
Format : AC-3
Format/Info : Audio Coding 3
Mode extension : CM (complete main)
Codec ID : 2000
Duration : 1h 40mn
Bit rate mode : Constant
Bit rate : 192 Kbps
Channel(s) : 2 channels
Channel positions : Front: L R
Sampling rate : 48.0 KHz
Bit depth : 16 bits
Compression mode : Lossy
Stream size : 138 MiB (9%)
Alignment : Aligned on interleaves
Interleave, duration : 40 ms (1.00 video frame)
Interleave, preload duration : 512 ms



Скачать Голубая.лагуна.The.Blue.Lagoon.(Рэндал.Клайзер).[1980.драма.мелодрама.приключения.DVDRip].[MVO].torrent без регистрации
Золото ЗОЛОТАЯ РАЗДАЧА! СКАЧАННОЕ НЕ ЗАСЧИТЫВАЕТСЯ! Золото
Дата: Зарегистрирован   [ Тип: внутренний ] Как тут cкачать?
MAGNET ссылка
MAGNET ссылка


Скачать .torrent

15 KB

Статус: проверено DHT
Скачан: торрент - 164 раз, раздача полностью - 68 раз
Размер: 1,46 GB
Оценка:  - (Голосов: 0)
Поблагодарили: 0
Поделиться ссылкой на эту раздачу с друзьями:
В контактеFacebookОдноклассникиTwitterLivejournalМой МирLiveinternet
 

 
Показать сообщения:    


Вы не можете начинать темы
Вы не можете отвечать на сообщения
Вы не можете редактировать свои сообщения
Вы не можете удалять свои сообщения
Вы не можете голосовать в опросах
Вы не можете прикреплять файлы к сообщениям
Вы можете скачивать файлы