Loading...
Error

Скачать Код «Омега» / The Omega Code (Роберт Маркарелли) [1999, боевик, триллер, драма, приключения, DVDRip-AVC] [MVO] торрент без регистрации

 
Статистика раздачи
Размер:  1,4 GB   |    Скачан:  140 раз
Сидов:  1  [  0 KB/s  ]  
 
Автор Сообщение

МихаНЕзатор

[] 

Информация о фильме
Название: Код «Омега»
Оригинальное название: The Omega Code
Год выхода: 1999
Жанр: боевик, триллер, драма, приключения
Режиссер: Роберт Маркарелли
В ролях: Каспер Ван Дин, Майкл Йорк, Кэтрин Оксенберг, Майкл Айронсайд, Ян Тришка, Грегори Вагровски, Девон Одесса, Уильям Хуткинс, Роберт Ит,о Джанет Кэрролл

О фильме: Давно известно, что в Библии, в Книге Откровений, скрыты древние зашифрованные послания, предсказывающие наступление глобальных судьбоносных событий. Примеры тому появление Гитлера, убийство Кеннеди, война в Заливе. А что, если кто то, используя последние достижения науки, сможет расшифровать коды этих пророчеств и тем самым получит контроль над нашим будущим?



Страна: США
Студия: Code Productions, Eclipse Catering, Gener8Xion Entertainment
Продолжительность: 01:39:18
Перевод: Профессиональный (многоголосый закадровый)

Файл
Кодек: Н.264
Качество: DVDRip-AVC (Хотя качество,больше похоже на VHSRip)
Видео: 704 x 384, 29.970 fps, 1783 Kbps
Звук: AC-3, 48.0 KHz, 6 ch, 192 Kbps
Субтитры: отсутствуют
Format : Matroska
Format version : Version 2
File size : 1.40 GiB
Duration : 1h 39mn
Overall bit rate : 2 015 Kbps
Encoded date : UTC 2012-06-30 12:18:15
Writing application : mkvmerge v5.3.0 ('I could have danced') built on Feb 9 2012 10:38:07
Writing library : libebml v1.2.3 + libmatroska v1.3.0

Video
ID : 1
Format : AVC
Format/Info : Advanced Video Codec
Format profile : Baseline@L3.0
Format settings, CABAC : No
Format settings, ReFrames : 1 frame
Format settings, GOP : M=1, N=12
Muxing mode : Header stripping
Codec ID : V_MPEG4/ISO/AVC
Duration : 1h 39mn
Bit rate : 1 783 Kbps
Width : 704 pixels
Height : 384 pixels
Display aspect ratio : 16:9
Frame rate mode : Variable
Frame rate : 29.970 fps
Color space : YUV
Chroma subsampling : 4:2:0
Bit depth : 8 bits
Scan type : Progressive
Bits/(Pixel*Frame) : 0.220
Stream size : 1.24 GiB (88%)
Language : English
Default : Yes
Forced : No

Audio
ID : 2
Format : AC-3
Format/Info : Audio Coding 3
Mode extension : CM (complete main)
Muxing mode : Header stripping
Codec ID : A_AC3
Duration : 1h 39mn
Bit rate mode : Constant
Bit rate : 192 Kbps
Channel(s) : 6 channels
Channel positions : Front: L C R, Side: L R, LFE
Sampling rate : 48.0 KHz
Bit depth : 16 bits
Compression mode : Lossy
Stream size : 136 MiB (10%)
Default : Yes
Forced : No



Скачать Код.«Омега».The.Omega.Code.(Роберт.Маркарелли).[1999.боевик.триллер.драма.приключения.DVDRip-AVC].[MVO].torrent без регистрации
Золото ЗОЛОТАЯ РАЗДАЧА! СКАЧАННОЕ НЕ ЗАСЧИТЫВАЕТСЯ! Золото
Дата: Зарегистрирован   [ Тип: внутренний ] Как тут cкачать?
MAGNET ссылка
MAGNET ссылка


Скачать .torrent

14 KB

Статус: проверено DHT
Скачан: торрент - 140 раз, раздача полностью - 175 раз
Размер: 1,4 GB
Оценка:  5 (Голосов: 1)
Поблагодарили: 4
Поделиться ссылкой на эту раздачу с друзьями:
В контактеFacebookОдноклассникиTwitterLivejournalМой МирLiveinternet
 

 
Показать сообщения:    


Вы не можете начинать темы
Вы не можете отвечать на сообщения
Вы не можете редактировать свои сообщения
Вы не можете удалять свои сообщения
Вы не можете голосовать в опросах
Вы не можете прикреплять файлы к сообщениям
Вы можете скачивать файлы