Loading...
Error

Скачать Форс-мажоры / Suits (Полный 2-ой сезон) (Kevin Bray, John Scott / Кевин Брэй, Джон Скотт) [2012, драма, WEB-DLRip] [MVO] (To4ka) торрент без регистрации

 
Статистика раздачи
Размер:  7,03 GB   |    Скачан:  439 раз
Сидов:  1  [  0 KB/s  ]  
 
Автор Сообщение

leon030982

[] 



Форс-мажоры / Костюмы в законе /


Год выпуска: 2012
Страна: США | USA Network
Жанр: Драма
Продолжительность: ~ 42 минуты
Перевод: Любительский (многоголосый, закадровый) - To4ka
Субтитры: Нет
Режиссёр: Кевин Брэй, Джон Скотт и др.
В ролях: Гэбриел Махт, Патрик Дж. Адамс, Рик Хоффман, Меган Маркл, Сара Рафферти, Джина Торрес, Ванесса Рэй, Том Липински, Макс Топплин, Ребекка Скул, Джулиан ДеЗотти, Бен Льюис и др.
Описание: Убегая после неудачной попытки сбыта наркотиков, юрист-самоучка Майк Росс, выдающий себя за выпускника Гарварда, попадает на собеседование к одному из лучших адвокатов по сделкам Нью-Йорка Харви Спектру. Устав от скучных соискателей, мечтающих «верой и правдой служить букве закона», Харви рискует и нанимает Майка: у парня врожденный талант и фотографическая память. Так рождается один из самых неоднозначных, но, в то же время, и самых блестящих тандемов законников на Манхэттене.
Качество: WEB-DLRip
Формат: AVI
Видео кодек: XviD
Аудио кодек: MP3
Видео: 720x400 (16:9), 23.976 fps, ~1200 kbps, ~0.180 bit/pixel
Аудио Rus: 48 kHz, 2 ch, ~128 kbps |To4ka|
Аудио Eng: 48 kHz, 2 ch, ~128 kbps |Original|
Релиз:
Озвучка: Александр Нелюбин, Андрей Хомяков, Ирина Грачева и Марина Комчарукова
Перевод: Релиз-группа "To4kaTranslate"
/ Сэмпл / ImDB / Кинопоиск
[b]1 серия: Lullub9, _HighFlyer, Anastasy, alunakanula, Alex_ander, yemelianova, izolenta, defying, leonard2008, artranger, Luizot, Grenada, tabushechka, tatetitotu, Bonitas, McLeod, SeverNord, masha_makarova, dales_man
2 серия: Grenada, vedmo4ka, alunakanula, overshine, zamogalina, Alex_ander, izolenta, Anastasy, _HighFlyer, Luizot, leonard2008, Lullub9, dales_man
3 серия: vedmo4ka, Luizot, alunakanula, Alex_ander, _HighFlyer, zamogalina, artranger, leonard2008, tabushechka, wererabbit
She Knows / Она знает
The Choice / Выбор
Meet the New Boss / Познакомьтесь с новым боссом
Общее
Полное имя : F:\Suits.s02.WEB-DLRip.Rus.Eng.[To4ka.TV]\Suits.s02e01.She.Knows.WEB-DLRip.Rus.Eng.[To4ka.TV].avi
Формат : AVI
Формат/Информация : Audio Video Interleave
Размер файла : 450 Мбайт
Продолжительность : 47 м.
Общий поток : 1337 Кбит/сек
Программа кодирования : VirtualDubModRus 1.5.10.2 (build 2542/release)
Библиотека кодирования : VirtualDubMod build 2542/release
Видео

Идентификатор : 0
Формат : MPEG-4 Visual
Профиль формата : Advanced Simple@L5
Параметр BVOP формата : 1
Параметр QPel формата : Нет
Параметр GMC формата : Без точки перехода
Параметр матрицы формата : Выборочная
Идентификатор кодека : XVID
Идентификатор кодека/Подсказка : XviD
Продолжительность : 47 м.
Битрейт : 1067 Кбит/сек
Ширина : 720 пикселей
Высота : 400 пикселей
Соотношение сторон : 16:9
Частота кадров : 23,976 кадра/сек
Цветовое пространство : YUV
Субдискретизация насыщенности : 4:2:0
Битовая глубина : 8 бит
Тип развёртки : Прогрессивная
Метод сжатия : С потерями
Бит/(Пиксели*Кадры) : 0.154
Размер потока : 359 Мбайт (80%)
Библиотека кодирования : XviD 65
Аудио #1
Идентификатор : 1
Формат : MPEG Audio
Версия формата : Version 1
Профиль формата : Layer 3
Режим : Joint stereo
Расширение режима : MS Stereo
Идентификатор кодека : 55
Идентификатор кодека/Подсказка : MP3
Продолжительность : 47 м.
Вид битрейта : Постоянный
Битрейт : 128 Кбит/сек
Каналы : 2 канала
Частота : 48,0 КГц
Метод сжатия : С потерями
Размер потока : 43,1 Мбайт (10%)
Выравнивание : Соединение по промежуткам
Продолжительность промежутка : 42 мс. (1,00 видеокадр)
Время предзагрузки промежутка : 504 мс.
Аудио #2
Идентификатор : 2
Формат : MPEG Audio
Версия формата : Version 1
Профиль формата : Layer 3
Режим : Joint stereo
Расширение режима : MS Stereo
Идентификатор кодека : 55
Идентификатор кодека/Подсказка : MP3
Продолжительность : 47 м.
Вид битрейта : Постоянный
Битрейт : 128 Кбит/сек
Каналы : 2 канала
Частота : 48,0 КГц
Метод сжатия : С потерями
Размер потока : 43,1 Мбайт (10%)
Выравнивание : Соединение по промежуткам
Продолжительность промежутка : 42 мс. (1,00 видеокадр)
Время предзагрузки промежутка : 504 мс.
Внимание! Раздача ведётся путём добавления новых серий; при каждом добавлении создётся новый торрент. Чтобы начать докачку новой серии, пользователям необходимо сделать следующее:Остановить скачивание.
Удалить старый торрент у себя из клиента (старые серии удалять не надо).
Скачать новый торрент и запустить его у себя в клиенте вместо старого, при этом указать клиенту путь в старую папку куда и должно происходить скачивание новых серий.Ваш клиент при этом должен произвести хеширование (проверку) старой папки (если не производит сам - помогите ему сделать это), и будет докачивать только те серии которых у вас ещё нет. Старые серии при этом не удаляются, а продолжают раздаваться!
Eсли вы уже удалили старые серии, то предотвратить повторную закачку старых серий можно, отжав галочку в соответсвующих местах при запуске нового торрента. По возможности, желательно не удалять старые серии как можно дольше чтобы релизёр не столько продолжал раздавать старые серии, а смог сконцентрироваться на новых.
[align=center] [/font]
27.02.13 Добавлена финальная 16-я серия!



Скачать Форс-мажоры.Suits.(Полный.2-ой.сезон).(Kevin.Bray.John.Scott.Кевин.Брэй.Джон.Скотт).[2012.драма.WEB-DLRip].[MVO].(To4ka).torrent без регистрации
Золото ЗОЛОТАЯ РАЗДАЧА! СКАЧАННОЕ НЕ ЗАСЧИТЫВАЕТСЯ! Золото
Дата: Зарегистрирован   [ Тип: внутренний ] Как тут cкачать?
MAGNET ссылка
MAGNET ссылка


Скачать .torrent

37 KB

Статус: проверено DHT
Скачан: торрент - 439 раз, раздача полностью - 92 раз
Размер: 7,03 GB
Оценка:  4,7 (Голосов: 3)
Поблагодарили: 4
Поделиться ссылкой на эту раздачу с друзьями:
В контактеFacebookОдноклассникиTwitterLivejournalМой МирLiveinternet
 

 
Показать сообщения:    


Вы не можете начинать темы
Вы не можете отвечать на сообщения
Вы не можете редактировать свои сообщения
Вы не можете удалять свои сообщения
Вы не можете голосовать в опросах
Вы не можете прикреплять файлы к сообщениям
Вы можете скачивать файлы