Loading...
Error

Скачать Берег Москитов / The Mosquito Coast (Питер Уир / Peter Weir) [1986, приключение, драма DVDRip] [Dub] ("Варус Видео") торрент без регистрации

 
Статистика раздачи
Размер:  1,46 GB   |    Скачан:  124 раза
Сидов:  1  [  0 KB/s  ]  
 
Автор Сообщение

leon030982

[] 

Берег Москитов / The Mosquito Coast
Год выпуска: 1986
Страна: США
Жанр: приключение, драма
Продолжительность: 01:58:43
Перевод: Профессиональный (полное дублирование)
Cубтитры: Отсутствуют

Режиссер: Питер Уир

В ролях: Харрисон Форд, Хелен Миррен, Ривер Феникс, Конрад Робертс, Андре Грегори, Марта Плимптон, Дик О`Нейлл, Майкл Роджерс, Хилари Гордон

Описание:
Элли Фокс обуреваем одной-единственной мечтой: бросить все и убежать с семьей куда-нибудь в джунгли, в первозданный мир, подальше от развращающего влияния цивилизации. Вместе с женой и детьми он садится на корабль, следующий к Берегу Москитов. Однако в джунглях Центральной Америки задуманная утопия Фокса превращается в опасное наваждение, а поиски рая сменяются жестокой борьбой за выживание.

(СЭМПЛ)
Качество видео: DVDRip
Формат видео: AVI
Видео: XviD, 704x384, 23.976 fps, 1556 kbps, 0.240 bpx
Аудио: Dolby AC3; Rus; 48000Hz; 2ch; 192kbps [полное дублирование] Варус Видео, VHSRip
General
Complete name : H:\Кино\The.Mosquito.Coast.1986.DVDRip.Dub.avi
Format : AVI
Format/Info : Audio Video Interleave
File size : 1.46 GiB
Duration : 1h 58mn
Overall bit rate : 1 758 Kbps
Movie name : Bereg.Moskitov
Original source form/Distribut : The.Mosquito.Coast.1986.DVDRip.XviD.AC3-[sz].avi
Genre : Drama / Adventure
Writing application : VirtualDubMod 1.5.10.2 (build 2540/release)
Writing library : VirtualDubMod build 2540/release
Copyright : 25KADR
Video
ID : 0
Format : MPEG-4 Visual
Format profile : Advanced Simple@L5
Format settings, BVOP : 2
Format settings, QPel : No
Format settings, GMC : No warppoints
Format settings, Matrix : Custom
Codec ID : XVID
Codec ID/Hint : XviD
Duration : 1h 58mn
Bit rate : 1 556 Kbps
Width : 704 pixels
Height : 384 pixels
Display aspect ratio : 16:9
Frame rate : 23.976 fps
Color space : YUV
Chroma subsampling : 4:2:0
Bit depth : 8 bits
Scan type : Progressive
Compression mode : Lossy
Bits/(Pixel*Frame) : 0.240
Stream size : 1.29 GiB (89%)
Writing library : XviD 1.1.0 (UTC 2005-11-22)
Audio
ID : 1
Format : AC-3
Format/Info : Audio Coding 3
Mode extension : CM (complete main)
Codec ID : 2000
Duration : 1h 58mn
Bit rate mode : Constant
Bit rate : 192 Kbps
Channel(s) : 2 channels
Channel positions : Front: L R
Sampling rate : 48.0 KHz
Bit depth : 16 bits
Compression mode : Lossy
Stream size : 163 MiB (11%)
Alignment : Split accross interleaves
Interleave, duration : 42 ms (1.00 video frame)
Interleave, preload duration : 500 ms
Language : Russian



Скачать Берег.Москитов.The.Mosquito.Coast.(Питер.Уир.Peter.Weir).[1986.приключение.драма.DVDRip].[Dub].("Варус.Видео").torrent без регистрации
Золото ЗОЛОТАЯ РАЗДАЧА! СКАЧАННОЕ НЕ ЗАСЧИТЫВАЕТСЯ! Золото
Дата: Зарегистрирован   [ Тип: внутренний ] Как тут cкачать?
MAGNET ссылка
MAGNET ссылка


Скачать .torrent

2 KB

Статус: проверено DHT
Скачан: торрент - 124 раз, раздача полностью - 23 раз
Размер: 1,46 GB
Оценка:  - (Голосов: 0)
Поблагодарили: 1
Поделиться ссылкой на эту раздачу с друзьями:
В контактеFacebookОдноклассникиTwitterLivejournalМой МирLiveinternet
 

 
Показать сообщения:    


Вы не можете начинать темы
Вы не можете отвечать на сообщения
Вы не можете редактировать свои сообщения
Вы не можете удалять свои сообщения
Вы не можете голосовать в опросах
Вы не можете прикреплять файлы к сообщениям
Вы можете скачивать файлы