Loading...
Error

Скачать Континуум / Continuum (Пэт Уильямс, Джон Кассар) (Сезон 1-2, серии 1-23 из 23) [ 2012-2013, Фантастика, триллер, драма, WEB-DLRip-AVC][DD5.1] [MVO] [LostFilm] торрент без регистрации

 
Статистика раздачи
Размер:  24,87 GB   |    Скачан:  275 раз
Сидов:  1  [  0 KB/s  ]  
 
Автор Сообщение

Nikolai.Baranov

[] 









Год выпуска: 2012-2013
Выпущено: США , Канада
Жанр: Фантастика, триллер, драма
Сезон: 1-2
Серии: 1-23
Продолжительность: 00:42:00
Количество серий в сезоне: 23
Озвучка:Профессиональная многоголосая закадровая(LostFilm)
Субтитры: НЕТ

Официальный сайт сериала



Режиссер: Пэт Уильямс, Джон Кассар

В ролях: Рэйчел Николс, Виктор Уэбстер, Эрик Кнудсен, Стефен Лобо, Ричард Хэрмон, Брайан Маркинсон, Дженнифер Спенс, Джон Генри Рирдон, Роджер Р. Кросс, Лекса Дойг и др.

Кира Кэмерон, уникальный специалист, и компьютерный гений по имени Садлер в недалеком прошлом будут пытаться остановить группу террористов-фанатиков: Попавшая в 2012-й год вместе с бегущими от властей экстремистами Кира устраивается обычным сотрудником в обычное отделение полиции - так начинается новый фантастический сериал, в котором герои будут перемещаться не только в пространстве, но и во времени.

Качество: WEB-DLRip-AVC 720р
Формат: MPEG-4
Видео кодек: H264
Видео: 3137Кбит/сек,1280х720(16/9),в 25.000кадр/сек,AVC(Baseline@L3.1)(1Ref Frames)
Аудио кодек: AAC
Аудио Russian Dolby Digital 5.1:447Кбит/сек,44.1КГц,6каналов,AAC,(Version4)(LC)


Русская звуковая дорожка сделана путем наложения чистого голоса озвучивателей на центральный канал оригинальной дорожки. Качество идентично английской звуковой дорожке.



1 СЕЗОН
01. Прыжок во времени / A Stitch in Time
02. Время летит / Fast Times
03. Трата времени / Wasting Time
04. Вопрос времени / Matter of Time
05. Испытание временем / A Test of Time
06 Время вышло / Time's Up
07 Политика времени / The Politics of Time
08 Игры со временем (Game Time)
09 Время в кругу семьи (Family Time)
10 Время вышло (End Times)

2 СЕЗОН
01 Второй шанс (Second Chances)
02 Доля секунды (Split Second)
03 Переосмысление (Second Thoughts)
04 Вторая кожа (Second Skin)
05 Взгляд со стороны (Second Opinion)
06 Другая правда (Second Truths)
07 Вторая степень (Second Degree)
08 Второе начало (Second Listen)
09 Секунды (Seconds)
10 Вторая волна (Second Wave)
11 Двойной обман (Second Guess)
12 Предпоследний (Second Last)
13 Второй раз (Second Time)



General
Полное имя : F:\К И Н О\С Е Р И А Л Ы\К О Н Т И Н У М\CONTINUUM_2012_-_2013_S01_-_S02_RUS[LostFilm.TV]_DD5.1_x264_Nikolai.Baranov_WEB-DLRip-AVC_(720p)\S01\Continuum_2012_s01е01_rus[LostFilm.TV]_DD5.1_x264_Nikolai.Baranov_WEB-DLRip-AVC_(720p).mp4
Формат : MPEG-4
Профиль формата : Base Media
Идентификатор кодека : isom
Размер файла : 1.10 GiB
Продолжительность : 44mn 13s
Режим общего битрейта : Variable
Общий поток : 3 571 Kbps
Дата кодирования : UTC 2012-06-16 11:07:31
Дата пометки : UTC 2012-06-16 11:07:31
Программа кодирования : Lavf51.12.1

Video
Идентификатор : 1
Формат : AVC
Формат/Информация : Advanced Video Codec
Профиль формата : Baseline@L3.1
Параметр CABAC формата : No
Параметр ReFrames формата : 1 frame
Параметр GOP формата : M=1, N=12
Идентификатор кодека : avc1
Идентификатор кодека/Информация : Advanced Video Coding
Продолжительность : 44mn 12s
Вид битрейта : Variable
Битрейт : 3 120 Kbps
Максимальный битрейт : 4 500 Kbps
Ширина : 1 280 pixels
Высота : 720 pixels
Соотношение сторон : 16:9
Режим частоты кадров : Constant
Частота кадров : 25.000 fps
Частота кадров в оригинале : 24.000 fps
Цветовое пространство : YUV
Субдискретизация насыщенности : 4:2:0
Битовая глубина : 8 bits
Тип развёртки : Progressive
Бит/(Пиксели*Кадры) : 0.135
Размер потока : 987 MiB (87%)
Дата кодирования : UTC 2012-06-16 11:07:31
Дата пометки : UTC 2012-06-16 11:07:31

Audio
Идентификатор : 2
Формат : AAC
Формат/Информация : Advanced Audio Codec
Профиль формата : LC
Идентификатор кодека : 40
Продолжительность : 44mn 13s
Вид битрейта : Variable
Битрейт : 447 Kbps
Каналы : 6 channels
Расположение каналов : Front: L C R, Side: L R, LFE
Частота : 44.1 KHz
Метод сжатия : Lossy
Размер потока : 141 MiB (13%)
Дата кодирования : UTC 2012-06-16 11:07:31
Дата пометки : UTC 2012-06-16 11:07:31



General
Полное имя : F:\К И Н О\С Е Р И А Л Ы\К О Н Т И Н У М\CONTINUUM_2012_-_2013_S01_-_S02_RUS[LostFilm.TV]_DD5.1_x264_Nikolai.Baranov_WEB-DLRip-AVC_(720p)\S02\Continuum_2013_s02е01_rus[LostFilm.TV]_DD5.1_x264_Nikolai.Baranov_WEB-DLRip-AVC_(720p).mp4
Формат : MPEG-4
Профиль формата : Base Media
Идентификатор кодека : isom
Размер файла : 1.09 GiB
Продолжительность : 44mn 9s
Режим общего битрейта : Variable
Общий поток : 3 548 Kbps
Дата кодирования : UTC 2013-05-04 04:13:32
Дата пометки : UTC 2013-05-04 04:13:32
Программа кодирования : Lavf51.12.1

Video
Идентификатор : 1
Формат : AVC
Формат/Информация : Advanced Video Codec
Профиль формата : Baseline@L5.0
Параметр CABAC формата : No
Параметр ReFrames формата : 1 frame
Параметр GOP формата : M=1, N=12
Идентификатор кодека : avc1
Идентификатор кодека/Информация : Advanced Video Coding
Продолжительность : 44mn 9s
Вид битрейта : Variable
Битрейт : 3 104 Kbps
Максимальный битрейт : 4 500 Kbps
Ширина : 1 280 pixels
Высота : 720 pixels
Соотношение сторон : 16:9
Режим частоты кадров : Constant
Частота кадров : 25.000 fps
Частота кадров в оригинале : 24.000 fps
Цветовое пространство : YUV
Субдискретизация насыщенности : 4:2:0
Битовая глубина : 8 bits
Тип развёртки : Progressive
Бит/(Пиксели*Кадры) : 0.135
Размер потока : 980 MiB (87%)
Дата кодирования : UTC 2013-05-04 04:13:32
Дата пометки : UTC 2013-05-04 04:13:32

Audio
Идентификатор : 2
Формат : AAC
Формат/Информация : Advanced Audio Codec
Профиль формата : LC
Идентификатор кодека : 40
Продолжительность : 44mn 9s
Вид битрейта : Variable
Битрейт : 440 Kbps
Каналы : 6 channels
Расположение каналов : Front: L C R, Side: L R, LFE
Частота : 44.1 KHz
Метод сжатия : Lossy
Размер потока : 139 MiB (12%)
Дата кодирования : UTC 2013-05-04 04:13:32
Дата пометки : UTC 2013-05-04 04:13:32





1 СЕЗОН

2 СЕЗОН


1. Открыть торрент
2. Снять галки с тех файлов торрента, которые мы не хотим закачивать. Оставляем только на нужных нам файлах (файле).
3. Нажать О.К.

В клиенте utorrent

Инструкция

1) Открыть торрент


2) Снять галки с тех файлов торрента, которые мы не хотим закачивать:

* либо вручную, снимая с каждого файла галку( скрин №1)
* либо, нажав кнопку "Снять метки (Select None)", сняв сразу со всех файлов(скрин №2)
№1

№2

Оставляем только на нужных нам файлах (файле).

3)Нажать О.К


Внимание!!! 09.08. 2013. РАЗДАЧА ОБНОВЛЕНА.ОБНОВИТЕ ТОРЕНТ ФАЙЛ.ПРИЯТНОГО ПРОСМОТРА.

Релиз от: Nikolai.Baranov










Скачать Континуум.Continuum.(Пэт.Уильямс.Джон.Кассар).(Сезон.1-2.серии.1-23.из.23).[.2012-2013.Фантастика.триллер.драма.WEB-DLRip-AVC][DD5.1].[MVO].[LostFilm].torrent без регистрации
Золото ЗОЛОТАЯ РАЗДАЧА! СКАЧАННОЕ НЕ ЗАСЧИТЫВАЕТСЯ! Золото
Дата: Зарегистрирован   [ Тип: внутренний ] Как тут cкачать?
MAGNET ссылка
MAGNET ссылка


Скачать .torrent

65 KB

Статус: проверено DHT
Скачан: торрент - 275 раз, раздача полностью - 139 раз
Размер: 24,87 GB
Оценка:  5 (Голосов: 2)
Поблагодарили: 11
Поделиться ссылкой на эту раздачу с друзьями:
В контактеFacebookОдноклассникиTwitterLivejournalМой МирLiveinternet
 

 
Показать сообщения:    


Вы не можете начинать темы
Вы не можете отвечать на сообщения
Вы не можете редактировать свои сообщения
Вы не можете удалять свои сообщения
Вы не можете голосовать в опросах
Вы не можете прикреплять файлы к сообщениям
Вы можете скачивать файлы