Loading...
Error

Скачать Попутчик / The Hitcher (Роберт Хармон / Robert Harmon) [1986, триллер, DVDRip-AVC] [MVO] + [AVO] (Гаврилов) + [AVO] (Горчаков) + [AVO] (Гоблин) + [AVO] (Володарский)+Sub (rus)+Original еng торрент без регистрации

 
Статистика раздачи
Размер:  1,46 GB   |    Скачан:  139 раз
Сидов:  1  [  0 KB/s  ]  
 
Автор Сообщение

leon030982

[] 

Попутчик / The Hitcher
Страна: США
Жанр: триллер
Год выпуска: 1986
Продолжительность: 01:33:27
Перевод 1: Профессиональный (многоголосый закадровый)
Перевод 2: Авторский (одноголосый закадровый) Гаврилов
Перевод 3: Авторский (одноголосый закадровый) Горчаков
Перевод 4: Авторский (одноголосый закадровый) Гоблин
Перевод 5: Авторский (одноголосый закадровый) Володарский
Cубтитры: русские
Оригинальная аудиодорожка: английский

Режиссер: Роберт Хармон / Robert Harmon

В ролях: С. Томас Хауэлл, Рутгер Хауэр, Дженнифер Джейсон Ли, Джеффри ДеМунн, Джон М. Джексон, Билли Грин Буш, Джек Тибо, Армин Шимерман, Джин Дэвис, Джон Ван Несс.

Описание: Молодой перегонщик автомобилей подсаживает на пустынной ночной дороге промокшего до нитки пассажира. И с этого момента его счастливая молодая жизнь превращается в нескончаемый, непереносимый кошмар...
Что можно сказать, шедевр, однозначно. Подонков и маньяков Рутгер Хауэр играет гениально.


Сэмпл: http://multi-up.com/727382
Качество видео: DVDRip-AVC
Формат видео: MKV
Видео: 1022x426@718х426 (2,4:1), 25 fps, AVC (H.264) ~1173 kbps avg, 0.153 bit/pixel
Аудио 1: Russian (48 KHz, AC3, 6 ch, ~384 Kbps) (многоголосый)
Аудио 2: Russian (48 KHz, AAC-LC, 2 ch, ~128 Kbps) (авторский Гаврилов)
Аудио 3: Russian (48 KHz, AAC-LC, 2 ch, ~128 Kbps) (авторский Горчаков)
Аудио 4: Russian (48 KHz, AAC-LC, 2 ch, ~128 Kbps) (авторский Гоблин)
Аудио 5: Russian (48 KHz, AC3, 2 ch, ~160 Kbps) (авторский Володарский)
Аудио 6: English (48 KHz, HE-AAC, 6 ch, ~128 Kbps) (оригинал)
Формат субтитров: softsub (SRT)
Общее
Уникальный идентификатор : 174188008253028232981219412303250392289 (0x830B63DDE7F3BBDAAAA6A9CEE1CB04E1)
Полное имя : D:\КИНО\Попутчик.mkv
Формат : Matroska
Версия формата : Version 2
Размер файла : 1,46 Гбайт
Продолжительность : 1 ч. 33 м.
Общий поток : 2233 Кбит/сек
Дата кодирования : UTC 2012-07-02 15:10:01
Программа кодирования : mkvmerge v5.6.0 ('Kenya Kane') built on May 27 2012 16:44:04
Библиотека кодирования : libebml v1.2.3 + libmatroska v1.3.0
Видео
Идентификатор : 1
Формат : AVC
Формат/Информация : Advanced Video Codec
Профиль формата : High@L4.1
Параметр CABAC формата : Да
Параметр ReFrames формата : 16 кадров
Идентификатор кодека : V_MPEG4/ISO/AVC
Продолжительность : 1 ч. 33 м.
Номинальный битрейт : 1173 Кбит/сек
Ширина : 718 пикселей
Высота : 426 пикселей
Соотношение сторон : 2,40:1
Частота кадров : 25,000 кадров/сек
Цветовое пространство : YUV
Субдискретизация насыщенности : 4:2:0
Битовая глубина : 8 бит
Тип развёртки : Прогрессивная
Бит/(Пиксели*Кадры) : 0.153
Библиотека кодирования : x264 core 125 r2200 999b753
Настройки программы : cabac=1 / ref=16 / deblock=1:-2:-1 / analyse=0x3:0x133 / me=umh / subme=10 / psy=1 / psy_rd=1.00:0.10 / mixed_ref=1 / me_range=24 / chroma_me=1 / trellis=2 / 8x8dct=1 / cqm=0 / deadzone=21,11 / fast_pskip=1 / chroma_qp_offset=-3 / threads=3 / lookahead_threads=1 / sliced_threads=0 / nr=0 / decimate=1 / interlaced=0 / bluray_compat=0 / constrained_intra=0 / bframes=8 / b_pyramid=0 / b_adapt=2 / b_bias=0 / direct=3 / weightb=1 / open_gop=0 / weightp=2 / keyint=250 / keyint_min=25 / scenecut=40 / intra_refresh=0 / rc_lookahead=60 / rc=2pass / mbtree=1 / bitrate=1173 / ratetol=1.0 / qcomp=0.60 / qpmin=10 / qpmax=51 / qpstep=4 / cplxblur=20.0 / qblur=0.5 / vbv_maxrate=50000 / vbv_bufsize=50000 / nal_hrd=none / ip_ratio=1.40 / aq=1:1.00
Default : Да
Forced : Нет
Аудио #1
Идентификатор : 2
Формат : AC-3
Формат/Информация : Audio Coding 3
Расширение режима : CM (complete main)
Идентификатор кодека : A_AC3
Продолжительность : 1 ч. 33 м.
Вид битрейта : Постоянный
Битрейт : 384 Кбит/сек
Каналы : 6 каналов
Расположение каналов : Front: L C R, Side: L R, LFE
Частота : 48,0 КГц
Битовая глубина : 16 бит
Метод сжатия : С потерями
Размер потока : 257 Мбайт (17%)
Язык : Russian
Default : Да
Forced : Нет
Аудио #2
Идентификатор : 3
Формат : AAC
Формат/Информация : Advanced Audio Codec
Профиль формата : LC
Идентификатор кодека : A_AAC
Продолжительность : 1 ч. 33 м.
Каналы : 2 канала
Расположение каналов : Front: L R
Частота : 48,0 КГц
Метод сжатия : С потерями
Задержка видео : 9 мс.
Язык : Russian
Default : Нет
Forced : Нет
Аудио #3
Идентификатор : 4
Формат : AAC
Формат/Информация : Advanced Audio Codec
Профиль формата : LC
Идентификатор кодека : A_AAC
Продолжительность : 1 ч. 33 м.
Каналы : 2 канала
Расположение каналов : Front: L R
Частота : 48,0 КГц
Метод сжатия : С потерями
Задержка видео : 9 мс.
Язык : Russian
Default : Нет
Forced : Нет
Аудио #4
Идентификатор : 5
Формат : AAC
Формат/Информация : Advanced Audio Codec
Профиль формата : LC
Идентификатор кодека : A_AAC
Продолжительность : 1 ч. 33 м.
Каналы : 2 канала
Расположение каналов : Front: L R
Частота : 48,0 КГц
Метод сжатия : С потерями
Задержка видео : 9 мс.
Язык : Russian
Default : Нет
Forced : Нет
Аудио #5
Идентификатор : 6
Формат : AC-3
Формат/Информация : Audio Coding 3
Расширение режима : CM (complete main)
Идентификатор кодека : A_AC3
Продолжительность : 1 ч. 33 м.
Вид битрейта : Постоянный
Битрейт : 160 Кбит/сек
Каналы : 2 канала
Расположение каналов : Front: L R
Частота : 48,0 КГц
Битовая глубина : 16 бит
Метод сжатия : С потерями
Размер потока : 107 Мбайт (7%)
Язык : Russian
Default : Нет
Forced : Нет
Аудио #6
Идентификатор : 7
Формат : AAC
Формат/Информация : Advanced Audio Codec
Профиль формата : HE-AAC / LC
Идентификатор кодека : A_AAC
Продолжительность : 1 ч. 33 м.
Каналы : 6 каналов
Расположение каналов : Front: L C R, Side: L R, LFE
Частота : 48,0 КГц / 24,0 КГц
Метод сжатия : С потерями
Задержка видео : 31 мс.
Язык : English
Default : Нет
Forced : Нет
Текст
Идентификатор : 8
Формат : UTF-8
Идентификатор кодека : S_TEXT/UTF8
Идентификатор кодека/Информация : UTF-8 Plain Text
Default : Нет
Forced : Да
--[Information] [01.07.2012 20:21:18] Encoding started
--[Information] [02.07.2012 8:25:06] Standard output stream
-[NoImage] avs [info]: 718x426p 135329:95077 @ 25/1 fps (cfr)
-[NoImage] x264 [info]: using SAR=33832/23769
-[NoImage] x264 [info]: using cpu capabilities: MMX2 SSE2Fast SSSE3 FastShuffle Cache64
-[NoImage] x264 [info]: profile High, level 4.1
-[NoImage]
-[NoImage] x264 [info]: frame I:1049 Avg QP:18.45 size: 28519
-[NoImage] x264 [info]: frame P:46485 Avg QP:19.69 size: 11627
-[NoImage] x264 [info]: frame B:92642 Avg QP:23.44 size: 2714
-[NoImage] x264 [info]: consecutive B-frames: 1.9% 10.6% 65.9% 11.9% 5.6% 2.4% 1.0% 0.3% 0.3%
-[NoImage] x264 [info]: mb I I16..4: 9.1% 80.0% 10.9%
-[NoImage] x264 [info]: mb P I16..4: 1.4% 7.1% 0.6% P16..4: 47.6% 20.3% 14.9% 0.6% 0.2% skip: 7.3%
-[NoImage] x264 [info]: mb B I16..4: 0.1% 0.7% 0.1% B16..8: 39.0% 6.4% 1.4% direct: 4.3% skip:48.1% L0:41.9% L1:46.4% BI:11.7%
-[NoImage] x264 [info]: 8x8 transform intra:78.7% inter:68.0%
-[NoImage] x264 [info]: direct mvs spatial:88.0% temporal:12.0%
-[NoImage] x264 [info]: coded y,uvDC,uvAC intra: 81.8% 68.9% 31.2% inter: 21.8% 20.6% 1.8%
-[NoImage] x264 [info]: i16 v,h,dc,p: 39% 17% 9% 36%
-[NoImage] x264 [info]: i8 v,h,dc,ddl,ddr,vr,hd,vl,hu: 11% 8% 6% 9% 14% 14% 13% 12% 12%
-[NoImage] x264 [info]: i4 v,h,dc,ddl,ddr,vr,hd,vl,hu: 12% 10% 4% 9% 15% 15% 14% 11% 12%
-[NoImage] x264 [info]: i8c dc,h,v,p: 34% 27% 22% 18%
-[NoImage] x264 [info]: Weighted P-Frames: Y:8.0% UV:2.7%
-[NoImage] x264 [info]: ref P L0: 51.0% 11.6% 12.4% 5.7% 4.5% 3.3% 2.7% 1.6% 1.4% 1.1% 1.0% 0.9% 0.8% 0.7% 0.7% 0.5%
-[NoImage] x264 [info]: ref B L0: 82.6% 6.6% 3.4% 1.7% 1.3% 1.0% 0.8% 0.5% 0.4% 0.4% 0.3% 0.3% 0.3% 0.2% 0.2%
-[NoImage] x264 [info]: kb/s:1172.54
-[NoImage] encoded 140176 frames, 3.23 fps, 1172.54 kb/s



Скачать Попутчик.The.Hitcher.(Роберт.Хармон.Robert.Harmon).[1986.триллер.DVDRip-AVC].[MVO].+.[AVO].(Гаврилов).+.[AVO].(Горчаков).+.[AVO].(Гоблин).+.[AVO].(Володарский)+Sub.(rus)+Original.еng.torrent без регистрации
Золото ЗОЛОТАЯ РАЗДАЧА! СКАЧАННОЕ НЕ ЗАСЧИТЫВАЕТСЯ! Золото
Дата: Зарегистрирован   [ Тип: внутренний ] Как тут cкачать?
MAGNET ссылка
MAGNET ссылка


Скачать .torrent

15 KB

Статус: проверено DHT
Скачан: торрент - 139 раз, раздача полностью - 69 раз
Размер: 1,46 GB
Оценка:  - (Голосов: 0)
Поблагодарили: 0
Поделиться ссылкой на эту раздачу с друзьями:
В контактеFacebookОдноклассникиTwitterLivejournalМой МирLiveinternet
 

 
Показать сообщения:    


Вы не можете начинать темы
Вы не можете отвечать на сообщения
Вы не можете редактировать свои сообщения
Вы не можете удалять свои сообщения
Вы не можете голосовать в опросах
Вы не можете прикреплять файлы к сообщениям
Вы можете скачивать файлы