Loading...
Error

Скачать Азартное привидение / The gambling ghost / Hong fu qi tian (Клифтон Ко / Clifton Ko) [1991, комедия, DVDRip] [MVO] торрент без регистрации

 
Статистика раздачи
Размер:  1,26 GB   |    Скачан:  121 раз
Сидов:  1  [  0 KB/s  ]  
 
Автор Сообщение

leon030982

[] 

Азартное привидение / The gambling ghost / Hong fu qi tian
Страна: Гонконг
Жанр: комедия
Год выпуска: 1991
Продолжительность: 01:29:14
Перевод: Профессиональный (многоголосый закадровый)
Cубтитры: нет

Режиссер: Клифтон Ко / Clifton Ko

В ролях: Саммо Хунг, Манг Хой, Нина Ли Чи, Джеймс Вонг, Норман Нг, Йип Винг-Чо, Джеймс Тьен, Стэнли Фунг, Ричард Нг, Ву Ма, Лам Чинг-Йинг, Чунг Фат, Билли Чоу, Роберт Сэмюэлс

Описание: Саммо Хунг играет здесь невезучего игрока, который, те не менее, уверен, что его шанс поймать птицу удачи не за горами. Его отец недоволен тем, как живет его сын, но сделать ничего не может: азарт у того в крови, ведь его дедушка тоже был заядлым игроком. Теперь дед на небесах, но это не мешает ему явиться в наш мир в виде привидения. Он обещает внуку помощь выиграть миллион, но в обмен Саммо должен найти и убить человека, отправившего деда на тот свет много лет назад...

Сэмпл: http://multi-up.com/726832

Качество видео: DVDRip
Формат видео: AVI
Видео: 720x400 (1.80:1), 25 fps, XviD build 50 ~1890 kbps avg, 0.26 bit/pixel
Аудио: 48 kHz, MPEG Layer 3, 2 ch, ~128.00 kbps avg
Общее
Полное имя : D:\Азартное привидение 1991.avi
Формат : AVI
Формат/Информация : Audio Video Interleave
Размер файла : 1,26 Гбайт
Продолжительность : 1 ч. 29 м.
Общий поток : 2029 Кбит/сек
Программа кодирования : VirtualDubModRus 1.5.10.2 (build 2540/release)
Библиотека кодирования : VirtualDubMod build 2540/release
Видео
Идентификатор : 0
Формат : MPEG-4 Visual
Профиль формата : Advanced Simple@L5
Параметр BVOP формата : 2
Параметр QPel формата : Нет
Параметр GMC формата : Без точки перехода
Параметр матрицы формата : Default (MPEG)
Идентификатор кодека : XVID
Идентификатор кодека/Подсказка : XviD
Продолжительность : 1 ч. 29 м.
Битрейт : 1891 Кбит/сек
Ширина : 720 пикселей
Высота : 400 пикселей
Соотношение сторон : 16:9
Частота кадров : 25,000 кадров/сек
Цветовое пространство : YUV
Субдискретизация насыщенности : 4:2:0
Битовая глубина : 8 бит
Тип развёртки : Прогрессивная
Метод сжатия : С потерями
Бит/(Пиксели*Кадры) : 0.263
Размер потока : 1,18 Гбайт (93%)
Библиотека кодирования : XviD 1.2.1 (UTC 2008-12-04)
Аудио
Идентификатор : 1
Формат : MPEG Audio
Версия формата : Version 1
Профиль формата : Layer 3
Режим : Joint stereo
Расширение режима : MS Stereo
Идентификатор кодека : 55
Идентификатор кодека/Подсказка : MP3
Продолжительность : 1 ч. 29 м.
Вид битрейта : Постоянный
Битрейт : 128 Кбит/сек
Каналы : 2 канала
Частота : 48,0 КГц
Метод сжатия : С потерями
Размер потока : 81,7 Мбайт (6%)
Выравнивание : Соединение по промежуткам
Продолжительность промежутка : 40 мс. (1,00 видеокадр)
Время предзагрузки промежутка : 504 мс.



Скачать Азартное.привидение.The.gambling.ghost.Hong.fu.qi.tian.(Клифтон.Ко.Clifton.Ko).[1991.комедия.DVDRip].[MVO].torrent без регистрации
Золото ЗОЛОТАЯ РАЗДАЧА! СКАЧАННОЕ НЕ ЗАСЧИТЫВАЕТСЯ! Золото
Дата: Зарегистрирован   [ Тип: внутренний ] Как тут cкачать?
MAGNET ссылка
MAGNET ссылка


Скачать .torrent

13 KB

Статус: проверено DHT
Скачан: торрент - 121 раз, раздача полностью - 17 раз
Размер: 1,26 GB
Оценка:  - (Голосов: 0)
Поблагодарили: 2
Поделиться ссылкой на эту раздачу с друзьями:
В контактеFacebookОдноклассникиTwitterLivejournalМой МирLiveinternet
 

 
Показать сообщения:    


Вы не можете начинать темы
Вы не можете отвечать на сообщения
Вы не можете редактировать свои сообщения
Вы не можете удалять свои сообщения
Вы не можете голосовать в опросах
Вы не можете прикреплять файлы к сообщениям
Вы можете скачивать файлы