Loading...
Error

Скачать Уилфред / Wilfred (Сезон 2, серии 01-13 из 13) (Рэндолл Эйнхорн, Виктор Нелли мл.) [2012 г., Комедия, WEB-DL] [720p] [Кубик в Кубе] торрент без регистрации

 
Статистика раздачи
Размер:  9,37 GB   |    Скачан:  177 раз
Сидов:  1  [  0 KB/s  ]  
 
Автор Сообщение

leon030982

[] 



Уилфред / Wilfred


Год выпуска: 2012
Страна: США | FX
Жанр: комедия
Продолжительность: ~ 22 минуты
Перевод: Профессиональный (двухголосый, закадровый) - Кубик в Кубе
Субтитры: Нет
Режиссёры: Рэндолл Эйнхорн, Виктор Нелли мл.
В ролях: Элайджа Вуд, Джейсон Гэнн, Фиона Габелманн, Дориан Браун, Эл Сапьенза, Рэйчел Стерлинг, Марк Энтони Лопез, Мэттью Каминский и др.
Описание: Сюжет строится вокруг молодого человека по имени Райан, который ухаживает за девушкой — хозяйкой пса по кличке Уилфред. Пес и молодой человек не нравятся друг другу с первого взгляда. Дело осложняется тем, что вместо собаки Райан видит человека в собачьем костюме, который с ним разговаривает.
Качество: WEB-DL 720p
Формат: MKV
Видео кодек: H.264
Аудио кодек: AC3
Видео: 1280x720 (16:9), 23.976 fps, ~4000 kbps, ~0.180 bit/pixel
Аудио Rus: 48 kHz, 6 ch, ~384 kbps |Кубик в Кубе|
Аудио Eng: 48 kHz, 6 ch, ~384 kbps |Original|
&
Озвучка: Кубик в Кубе
Перевод: Эль Брухо
Работа со звуком: ЛП
/ Сэмпл / ImDB / Кинопоиск
Progress
Letting Go
[b]Общее
Формат : Matroska
Версия формата : Version 2
Размер файла : 706 Мбайт
Продолжительность : 21 м.
Общий поток : 4669 Кбит/сек
Дата кодирования : UTC 2012-06-28 16:37:52
Программа кодирования : mkvmerge v4.9.1 ('Ich will') сборка от Jul 11 2011 23:53:15
Библиотека кодирования : libebml v1.2.1 + libmatroska v1.1.1
Видео
Идентификатор : 1
Формат : AVC
Формат/Информация : Advanced Video Codec
Профиль формата : High@L3.1
Параметр CABAC формата : Нет
Параметр ReFrames формата : 2 кадра
Идентификатор кодека : V_MPEG4/ISO/AVC
Продолжительность : 21 м.
Битрейт : 3808 Кбит/сек
Ширина : 1280 пикселей
Высота : 720 пикселей
Соотношение сторон : 16:9
Частота кадров : 23,976 кадра/сек
Цветовое пространство : YUV
Субдискретизация насыщенности : 4:2:0
Битовая глубина : 8 бит
Тип развёртки : Прогрессивная
Бит/(Пиксели*Кадры) : 0.172
Размер потока : 576 Мбайт (82%)
Default : Да
Forced : Нет
Основные цвета : BT.709-5, BT.1361, IEC 61966-2-4, SMPTE RP177
Характеристики трансфера : BT.709-5, BT.1361
Коэффициенты матрицы : BT.709-5, BT.1361, IEC 61966-2-4 709, SMPTE RP177
Аудио #1
Идентификатор : 2
Формат : AC-3
Формат/Информация : Audio Coding 3
Расширение режима : CM (complete main)
Параметр Endianness формата : Big
Идентификатор кодека : A_AC3
Продолжительность : 21 м.
Вид битрейта : Постоянный
Битрейт : 384 Кбит/сек
Каналы : 6 каналов
Расположение каналов : Front: L C R, Side: L R, LFE
Частота : 48,0 КГц
Битовая глубина : 16 бит
Метод сжатия : С потерями
Размер потока : 58,0 Мбайт (8%)
Язык : Russian
Default : Да
Forced : Нет
Аудио #2
Идентификатор : 3
Формат : AC-3
Формат/Информация : Audio Coding 3
Расширение режима : CM (complete main)
Параметр Endianness формата : Big
Идентификатор кодека : A_AC3
Продолжительность : 21 м.
Вид битрейта : Постоянный
Битрейт : 384 Кбит/сек
Каналы : 6 каналов
Расположение каналов : Front: L C R, Side: L R, LFE
Частота : 48,0 КГц
Битовая глубина : 16 бит
Метод сжатия : С потерями
Размер потока : 58,0 Мбайт (8%)
Язык : English
Default : Нет
Forced : Нет
Внимание! Раздача ведётся путём добавления новых серий; при каждом добавлении создётся новый торрент. Чтобы начать докачку новой серии, пользователям необходимо сделать следующее:Остановить скачивание.
Удалить старый торрент у себя из клиента (старые серии удалять не надо).
Скачать новый торрент и запустить его у себя в клиенте вместо старого, при этом указать клиенту путь в старую папку куда и должно происходить скачивание новых серий.Ваш клиент при этом должен произвести хеширование (проверку) старой папки (если не производит сам - помогите ему сделать это), и будет докачивать только те серии которых у вас ещё нет. Старые серии при этом не удаляются, а продолжают раздаваться!
Eсли вы уже удалили старые серии, то предотвратить повторную закачку старых серий можно, отжав галочку в соответсвующих местах при запуске нового торрента. По возможности, желательно не удалять старые серии как можно дольше чтобы релизёр не столько продолжал раздавать старые серии, а смог сконцентрироваться на новых.
[align=center] [/font]



Скачать Уилфред.Wilfred.(Сезон.2.серии.01-13.из.13).(Рэндолл.Эйнхорн.Виктор.Нелли.мл.).[2012.г.Комедия.WEB-DL].[720p].[Кубик.в.Кубе].torrent без регистрации
Золото ЗОЛОТАЯ РАЗДАЧА! СКАЧАННОЕ НЕ ЗАСЧИТЫВАЕТСЯ! Золото
Дата: Зарегистрирован   [ Тип: внутренний ] Как тут cкачать?
MAGNET ссылка
MAGNET ссылка


Скачать .torrent

48 KB

Статус: проверено DHT
Скачан: торрент - 177 раз, раздача полностью - 49 раз
Размер: 9,37 GB
Оценка:  5 (Голосов: 4)
Поблагодарили: 6
Поделиться ссылкой на эту раздачу с друзьями:
В контактеFacebookОдноклассникиTwitterLivejournalМой МирLiveinternet
 

 
Показать сообщения:    


Вы не можете начинать темы
Вы не можете отвечать на сообщения
Вы не можете редактировать свои сообщения
Вы не можете удалять свои сообщения
Вы не можете голосовать в опросах
Вы не можете прикреплять файлы к сообщениям
Вы можете скачивать файлы