Loading...
Error

Скачать Дикари (Виктор Шамиров) [2006, драма, мелодрама, комедия, DVDRip-AVC] торрент без регистрации

 
Статистика раздачи
Размер:  2,47 GB   |    Скачан:  310 раз
Сидов:  1  [  0 KB/s  ]  
 
Автор Сообщение

МихаНЕзатор

[] 

Дикари


Год выпуска: 2006
Жанр: драма, мелодрама, комедия
Режиссер: Виктор Шамиров
Продолжительность: 1:47:46

В ролях: Гоша Куценко, Марат Башаров, Константин Юшкевич, Эвклид Кюрдзидис, Тихон Жизневский, Анна Небогатова, Владислав Галкин, Алексей Горбунов, Ирина Новак, Александр Гришаев и тд

Описание: Море, август Интересы людей просты: позагорать, поплавать, поиграть в волейбол, баскетбол, выпить, потанцевать вечером, найти партнера на ночь Многие вышли из студенческого возраста, могут позволить себе более комфортабельный отдых, но кончается июль, они кидают в багажник солидного автомобиля старую палатку и едут сюда.

Здесь не говорят о работе, здесь не важно, сколько у тебя денег Множество человеческих историй, ценных, смешных и грустных. Внимание переходит от одного героя к другому, затем к третьему, возвращается к первому и цепляет на исходе эпизода четвертого, который был главный в предыдущем эпизоде. Рассказ строится скорее как музыка, чем как конструкция. И ритм, настроение повествования задает именно место действия.

Доп. информация:
В дополнительных материалах: История создания фильма, интервью с режисером Виктором Шамировым, Маратом Башаровым, Гошей Куценко, клип на финальную песню фильма и рабочие фрагменты не вошедшие в фильм.
Инфо по доп.материалам
Видео: 700 x 568 (1.232) at 25.000 fps AVC at 1400 Кбит/сек
Аудио: AC-3 at 192 Кбит/сек 2 канала, 48,0 КГц

Основной фильм:
Качество: DVDRip
Формат: MKV
Видео кодек: h.264
Аудио кодек: DTS
Видео: 720 x 552 @ 1024 x552 (1.855) at 25.000 fps AVC at 1680 Кбит/сек
Аудио: DTS 5.1 768 Кбит/сек, 48,0 КГц
Аудио: AC-3 at 192 Кбит/сек 2 канала, 48,0 КГц

Релиз от:
Полное имя : Дикари.2006.DVDRip-AVC-F.HD.mkv
Формат : Matroska
Версия формата : Version 2
Размер файла : 1,98 Гбайт
Продолжительность : 1 ч. 47 м.
Режим общего битрейта : Переменный
Общий поток : 2626 Кбит/сек
Дата кодирования : UTC 2012-07-02 13:46:36
Программа кодирования : mkvmerge v5.6.0 ('Kenya Kane') built on May 27 2012 16:44:04
Библиотека кодирования : libebml v1.2.3 + libmatroska v1.3.0

Видео
Идентификатор : 1
Формат : AVC
Формат/Информация : Advanced Video Codec
Профиль формата : High@L4.1
Параметр CABAC формата : Да
Параметр ReFrames формата : 16 кадров
Идентификатор кодека : V_MPEG4/ISO/AVC
Продолжительность : 1 ч. 47 м.
Вид битрейта : Переменный
Битрейт : 1680 Кбит/сек
Максимальный битрейт : 8000 Кбит/сек
Ширина : 720 пикселей
Высота : 552 пикселя
Соотношение сторон : 1,85:1
Частота кадров : 25,000 кадров/сек
Цветовое пространство : YUV
Субдискретизация насыщенности : 4:2:0
Битовая глубина : 8 бит
Тип развёртки : Прогрессивная
Бит/(Пиксели*Кадры) : 0.169
Размер потока : 1,23 Гбайт (62%)
Заголовок : DVDRip-AVC by FREEISLAND
Библиотека кодирования : x264 core 125 r2200 999b753
Настройки программы : cabac=1 / ref=16 / deblock=1:-2:-2 / analyse=0x3:0x133 / me=umh / subme=11 / psy=1 / psy_rd=1.00:0.00 / mixed_ref=1 / me_range=32 / chroma_me=1 / trellis=2 / 8x8dct=1 / cqm=0 / deadzone=21,11 / fast_pskip=0 / chroma_qp_offset=-2 / threads=9 / lookahead_threads=1 / sliced_threads=0 / nr=0 / decimate=1 / interlaced=0 / bluray_compat=0 / constrained_intra=0 / bframes=16 / b_pyramid=2 / b_adapt=2 / b_bias=30 / direct=1 / weightb=1 / open_gop=0 / weightp=2 / keyint=250 / keyint_min=25 / scenecut=40 / intra_refresh=0 / rc_lookahead=40 / rc=2pass / mbtree=0 / bitrate=1680 / ratetol=2.0 / qcomp=1.00 / qpmin=0 / qpmax=51 / qpstep=4 / cplxblur=20.0 / qblur=0.5 / vbv_maxrate=8000 / vbv_bufsize=40000 / nal_hrd=vbr / ip_ratio=1.40 / pb_ratio=1.30 / aq=1:1.00
Язык : Russian
Default : Да
Forced : Нет

Аудио #1
Идентификатор : 2
Формат : DTS
Формат/Информация : Digital Theater Systems
Идентификатор кодека : A_DTS
Продолжительность : 1 ч. 47 м.
Вид битрейта : Постоянный
Битрейт : 755 Кбит/сек
Каналы : 6 каналов
Расположение каналов : Front: L C R, Side: L R, LFE
Частота : 48,0 КГц
Битовая глубина : 24 бит
Метод сжатия : С потерями
Размер потока : 582 Мбайт (29%)
Заголовок : DTS 5.1 768 Кбит/сек
Язык : Russian
Default : Да
Forced : Нет

Аудио #2
Идентификатор : 3
Формат : AC-3
Формат/Информация : Audio Coding 3
Расширение режима : CM (complete main)
Параметр Endianness формата : Big
Идентификатор кодека : A_AC3
Продолжительность : 1 ч. 47 м.
Вид битрейта : Постоянный
Битрейт : 192 Кбит/сек
Каналы : 2 канала
Расположение каналов : Front: L R
Частота : 48,0 КГц
Битовая глубина : 16 бит
Метод сжатия : С потерями
Задержка видео : 118 мс.
Размер потока : 148 Мбайт (7%)
Заголовок : AC-3 192 Кбит/сек 2ch
Язык : Russian
Default : Нет
Forced : Нет

Меню
00:00:00.000 : en:Начало
00:05:12.600 : en:В томате или масле?
00:13:04.800 : en:Лопата
00:20:42.000 : en:Год как год
00:25:23.400 : en:Гоблины
00:37:42.600 : en:Принцесса
00:42:51.000 : en:К бою!
00:51:39.600 : en:День рождения
01:17:46.200 : en:Это что, это отдых?
01:28:02.400 : en:Я больше сюда не приеду
01:30:59.400 : en:Рыба, скажи!
01:42:23.400 : en:Край лета



Скачать Дикари.(Виктор.Шамиров).[2006.драма.мелодрама.комедия.DVDRip-AVC].torrent без регистрации
Золото ЗОЛОТАЯ РАЗДАЧА! СКАЧАННОЕ НЕ ЗАСЧИТЫВАЕТСЯ! Золото
Дата: Зарегистрирован   [ Тип: внутренний ] Как тут cкачать?
MAGNET ссылка
MAGNET ссылка


Скачать .torrent

13 KB

Статус: проверено DHT
Скачан: торрент - 310 раз, раздача полностью - 870 раз
Размер: 2,47 GB
Оценка:  5 (Голосов: 2)
Поблагодарили: 4
Поделиться ссылкой на эту раздачу с друзьями:
В контактеFacebookОдноклассникиTwitterLivejournalМой МирLiveinternet
 

 

Wolend

[] 

Очень хороший релиз, скачаю на днях. Смотрел фильм минимум 50 раз все цитаты выучил. Под НГ посмотреть как раз!
 
Показать сообщения:    


Вы не можете начинать темы
Вы не можете отвечать на сообщения
Вы не можете редактировать свои сообщения
Вы не можете удалять свои сообщения
Вы не можете голосовать в опросах
Вы не можете прикреплять файлы к сообщениям
Вы можете скачивать файлы